Крест (Аркадий Мамонтов, Ирина Прокудина)

Крест (Аркадий Мамонтов, Ирина Прокудина)
Название:
Крест (Аркадий Мамонтов, Ирина Прокудина)
Размер:
2.56 GB
2.3810
42
1
Скачать
Крест
Дата/Год выпуска: 2014
Страна: Россия
Жанр: Документальное
Продолжительность: 42:58
Перевод: Не требуется
Автор сценария: Аркадий Мамонтов
Режиссёр: Ирина Прокудина
Описание: Крест является символом и основой христианской веры.
В глубинке России, в Ярославской области, находится монастырь, где хранится одна из святынь православной Руси - так называемый Годеновский Крест. История этого религиозного артефакта уникальна. В 15 веке, за 30 лет до падения Константинополя, среди болот и лесов необъяснимым образом появился крест византийской работы.
О многострадальной истории христианства, Креста, о том, как из символа позорной казни он превратился в символ веры и спасения, рассказывают известные священники и ученые-историки в фильме Аркадия Мамонтова "Крест".
качество: HDTV
формат: MKV
Видео: MPEG4 Video (H264) 1920x1080 8177Kbps 25fps
Аудио: MPEG Audio 48000Hz stereo 192kbps
MediaInfo
General
Unique ID : 151507090639234332539742729602253477068 (0x71FB344AB480F0C24619EA56438854CC)
Complete name : C:\Users\Sergii\Desktop\КРЕСТ\Крест.mkv
Format : Matroska
Format version : Version 1
File size : 2.56 GiB
Duration : 42mn 57s
Overall bit rate : 8 539 Kbps
Encoded date : UTC 2015-01-07 06:56:36
Writing application : TSDoctor 1.2.148.0
Writing library : Haali DirectShow Matroska Muxer 1.13.138.14
Video
ID : 1
Format : AVC
Format/Info : Advanced Video Codec
Format profile : Main@L4.0
Format settings, CABAC : Yes
Format settings, ReFrames : 3 frames
Codec ID : V_MPEG4/ISO/AVC
Duration : 42mn 57s
Bit rate : 8 177 Kbps
Width : 1 920 pixels
Height : 1 080 pixels
Display aspect ratio : 16:9
Frame rate mode : Constant
Frame rate : 45.455 fps
Original frame rate : 25.000 fps
Standard : Component
Color space : YUV
Chroma subsampling : 4:2:0
Bit depth : 8 bits
Scan type : Interlaced
Scan order : Top Field First
Bits/(Pixel*Frame) : 0.087
Stream size : 2.45 GiB (96%)
Title : PID 1311 Video
Default : No
Forced : No
Color primaries : BT.709
Transfer characteristics : BT.709
Matrix coefficients : BT.709
Color range : Limited
Audio
ID : 2
Format : MPEG Audio
Format version : Version 1
Format profile : Layer 2
Codec ID : A_MPEG/L2
Codec ID/Hint : MP2
Duration : 42mn 57s
Bit rate mode : Constant
Bit rate : 192 Kbps
Channel(s) : 2 channels
Sampling rate : 48.0 KHz
Compression mode : Lossy
Stream size : 59.0 MiB (2%)
Title : MPEG1
Language : Russian
Default : Yes
Forced : No
Скриншоты