Архимандрит Амвросий Юрасов. Проповеди. 2009-2010

Архимандрит Амвросий Юрасов. Проповеди. 2009-2010
Название:
Архимандрит Амвросий Юрасов. Проповеди. 2009-2010
Размер:
4.21 GB
51
Скачать
Архимандрит Амвросий Юрасов. Проповеди. 2009-2010
Год выпуска: 2014
Страна: Россия
Жанр: Православная проповедь
Продолжительность: 02:03:41
Перевод: Не требуется
Русские субтитры: нет
Оригинальная аудиодорожка: русский
Описание: Проповеди архимандрита Амвросия Юрасова.
Ноябрь/декабрь 2009 г. - январь 2010 г.
Архимандрит Амвросий Юрасов - основатель и духовник Введенского женского монастыря города Иваново, автор книг о вере и спасении.
Доп. информация: Свято-Введенский женский монастырь. г.Иваново.
Меню: Присутствует, на русском, статичное
Сэмпл: https://www.sendspace.com/file/isz4xx
Качество: DVD5
Формат: DVD Video
Видео кодек: MPEG2
Аудио кодек: AC-3
Видео: 720*576 (16:9), PAL 4619 Кбит/сек, 25,000 кадров/сек, MPEG2
Аудио: Русский, 256 Кбит/сек, 2 канала, 48,0 КГц, 16 бит, AC-3
Проповеди. Названия
Тайну цареву храни, а славу Божию поведай
Проповедь в неделю 21-ю по Пятидесятнице
Нашёл Бora - нашёл всё
Проповедь в день памяти апостола и евангелиста Матфея
Почему Бог допускает войны, страдание детей, насилие
Проповедь в день памяти благоверного великого князя Александра Невского
Смирение - основа нашего спасения
Проповедь в неделю 29-ю по Пятидесятнице
От смерти к жизни
Проповедь в неделю 30-ю по Пятидесятнице, пред Рождеством Христовым
DVDInfo
Title: 4-3
Size: 4.21 Gb ( 4 416 022,00 KBytes ) - DVD-5
Enabled regions: 1, 2, 3, 4, 5, 6, 7, 8
VTS_01 :
Play Length: 02:03:41
Video: PAL 16:9 (720x576) VBR, Auto Letterboxed
Audio:
Russian, AC3, 2/0 (L,R) ch, 256 kbps, Delay 0 mSec
* Menus Information *
VIDEO_TS Menu
Video:
PAL 16:9 (720x576) VBR
Auto Letterboxed
Audio:
Not specified (Dolby AC3, 2 ch)
Language Unit :
VTS_01 Menu
Video:
PAL 16:9 (720x576) VBR
Auto Letterboxed
Language Unit :
Root Menu
MediaInfo
Общее
Полное имя : E:\Архимандрит Амвросий Юрасов. Проповеди. 2009-2010\VIDEO_TS\VIDEO_TS.BUP
Формат : DVD Video
Профиль формата : Menu
Размер файла : 32,0 Кбайт
Режим общего битрейта : Переменный
Видео
Идентификатор : 224 (0xE0)
Формат : MPEG Video
Версия формата : Version 2
Вид битрейта : Переменный
Ширина : 720 пикселей
Высота : 576 пикселей
Соотношение сторон : 16:9
Частота кадров : 25,000 кадров/сек
Стандарт вещания : PAL
Метод сжатия : С потерями
Аудио
Формат : AC-3
Формат/Информация : Audio Coding 3
Каналы : 2 канала
Частота : 48,0 КГц
Метод сжатия : С потерями
Общее
Полное имя : E:\Архимандрит Амвросий Юрасов. Проповеди. 2009-2010\VIDEO_TS\VIDEO_TS.IFO
Формат : DVD Video
Профиль формата : Menu
Размер файла : 32,0 Кбайт
Режим общего битрейта : Переменный
Видео
Идентификатор : 224 (0xE0)
Формат : MPEG Video
Версия формата : Version 2
Вид битрейта : Переменный
Ширина : 720 пикселей
Высота : 576 пикселей
Соотношение сторон : 16:9
Частота кадров : 25,000 кадров/сек
Стандарт вещания : PAL
Метод сжатия : С потерями
Аудио
Формат : AC-3
Формат/Информация : Audio Coding 3
Каналы : 2 канала
Частота : 48,0 КГц
Метод сжатия : С потерями
Общее
Полное имя : E:\Архимандрит Амвросий Юрасов. Проповеди. 2009-2010\VIDEO_TS\VTS_01_0.BUP
Формат : DVD Video
Профиль формата : Program
Размер файла : 84,0 Кбайт
Продолжительность : 2 ч. 3 м.
Режим общего битрейта : Переменный
Общий поток : 93 бит/сек
Видео
Идентификатор : 224 (0xE0)
Формат : MPEG Video
Версия формата : Version 2
Продолжительность : 2 ч. 3 м.
Вид битрейта : Переменный
Ширина : 720 пикселей
Высота : 576 пикселей
Соотношение сторон : 16:9
Частота кадров : 25,000 кадров/сек
Стандарт вещания : PAL
Метод сжатия : С потерями
Аудио
Идентификатор : 128 (0x80)
Формат : AC-3
Формат/Информация : Audio Coding 3
Продолжительность : 2 ч. 3 м.
Каналы : 2 канала
Частота : 48,0 КГц
Метод сжатия : С потерями
Язык : Russian
Меню
Продолжительность : 2 ч. 3 м.
00:00:00.000 : Chapter 1
00:07:57.160 : Chapter 2
00:14:59.840 : Chapter 3
00:22:32.280 : Chapter 4
00:30:47.520 : Chapter 5
00:37:22.480 : Chapter 6
00:43:00.200 : Chapter 7
00:48:41.280 : Chapter 8
00:55:35.680 : Chapter 9
01:03:42.280 : Chapter 10
01:11:04.040 : Chapter 11
01:18:10.560 : Chapter 12
01:23:47.920 : Chapter 13
01:29:22.400 : Chapter 14
01:34:50.840 : Chapter 15
01:40:32.160 : Chapter 16
01:45:22.680 : Chapter 17
01:51:58.680 : Chapter 18
01:57:42.680 : Chapter 19
List (Audio) : 0
Общее
Полное имя : E:\Архимандрит Амвросий Юрасов. Проповеди. 2009-2010\VIDEO_TS\VTS_01_0.IFO
Формат : DVD Video
Профиль формата : Program
Размер файла : 84,0 Кбайт
Продолжительность : 2 ч. 3 м.
Режим общего битрейта : Переменный
Общий поток : 93 бит/сек
Видео
Идентификатор : 224 (0xE0)
Формат : MPEG Video
Версия формата : Version 2
Продолжительность : 2 ч. 3 м.
Вид битрейта : Переменный
Ширина : 720 пикселей
Высота : 576 пикселей
Соотношение сторон : 16:9
Частота кадров : 25,000 кадров/сек
Стандарт вещания : PAL
Метод сжатия : С потерями
Аудио
Идентификатор : 128 (0x80)
Формат : AC-3
Формат/Информация : Audio Coding 3
Продолжительность : 2 ч. 3 м.
Каналы : 2 канала
Частота : 48,0 КГц
Метод сжатия : С потерями
Язык : Russian
Меню
Продолжительность : 2 ч. 3 м.
00:00:00.000 : Chapter 1
00:07:57.160 : Chapter 2
00:14:59.840 : Chapter 3
00:22:32.280 : Chapter 4
00:30:47.520 : Chapter 5
00:37:22.480 : Chapter 6
00:43:00.200 : Chapter 7
00:48:41.280 : Chapter 8
00:55:35.680 : Chapter 9
01:03:42.280 : Chapter 10
01:11:04.040 : Chapter 11
01:18:10.560 : Chapter 12
01:23:47.920 : Chapter 13
01:29:22.400 : Chapter 14
01:34:50.840 : Chapter 15
01:40:32.160 : Chapter 16
01:45:22.680 : Chapter 17
01:51:58.680 : Chapter 18
01:57:42.680 : Chapter 19
List (Audio) : 0
Общее
Полное имя : E:\Архимандрит Амвросий Юрасов. Проповеди. 2009-2010\VIDEO_TS\VTS_01_0.VOB
Формат : MPEG-PS
Размер файла : 182 Кбайт
Продолжительность : 400 мс.
Режим общего битрейта : Переменный
Общий поток : 3727 Кбит/сек
Библиотека кодирования : (dvd5: Nov 27 2014)
Видео
Идентификатор : 224 (0xE0)
Формат : MPEG Video
Версия формата : Version 2
Профиль формата : Main@Main
Параметр BVOP формата : Да
Параметр матрицы формата : Выборочная
Продолжительность : 400 мс.
Вид битрейта : Переменный
Максимальный битрейт : 8500 Кбит/сек
Ширина : 720 пикселей
Высота : 576 пикселей
Соотношение сторон : 16:9
Частота кадров : 25,000 кадров/сек
Стандарт вещания : PAL
Цветовое пространство : YUV
Субдискретизация насыщенности : 4:2:0
Битовая глубина : 8 бит
Тип развёртки : Прогрессивная
Метод сжатия : С потерями
Временной код первого кадра : 00:00:00:00
Оригинал временного кода : Group of pictures header
Библиотека кодирования : (dvd5: Nov 27 2014)
Текст #1
Идентификатор : 189 (0xBD)-32 (0x20)
Формат : RLE
Формат/Информация : Run-length encoding
Режим смешивания : DVD-Video
Текст #2
Идентификатор : 189 (0xBD)-33 (0x21)
Формат : RLE
Формат/Информация : Run-length encoding
Режим смешивания : DVD-Video
Меню
Общее
Полное имя : E:\Архимандрит Амвросий Юрасов. Проповеди. 2009-2010\VIDEO_TS\VTS_01_1.VOB
Формат : MPEG-PS
Размер файла : 1024 Мбайт
Продолжительность : 29 м.
Режим общего битрейта : Переменный
Общий поток : 4927 Кбит/сек
Библиотека кодирования : (dvd5: Nov 27 2014)
Видео
Идентификатор : 224 (0xE0)
Формат : MPEG Video
Версия формата : Version 2
Профиль формата : Main@Main
Параметр BVOP формата : Да
Параметр матрицы формата : Выборочная
Параметр GOP формата : M=3, N=12
Format_Settings_PictureStructure : Frame
Продолжительность : 29 м.
Вид битрейта : Переменный
Битрейт : 4573 Кбит/сек
Максимальный битрейт : 9500 Кбит/сек
Ширина : 720 пикселей
Высота : 576 пикселей
Соотношение сторон : 16:9
Частота кадров : 25,000 кадров/сек
Стандарт вещания : PAL
Цветовое пространство : YUV
Субдискретизация насыщенности : 4:2:0
Битовая глубина : 8 бит
Тип развёртки : Чересстрочная
Порядок развёртки : Верхнее поле первое
Метод сжатия : С потерями
Бит/(Пиксели*Кадры) : 0.441
Временной код первого кадра : 00:00:00:00
Оригинал временного кода : Group of pictures header
Размер потока : 950 Мбайт (93%)
Библиотека кодирования : (dvd5: Nov 27 2014)
Gop_OpenClosed_FirstFrame : Closed
Аудио
Идентификатор : 189 (0xBD)-128 (0x80)
Формат : AC-3
Формат/Информация : Audio Coding 3
Расширение режима : CM (complete main)
Параметр Endianness формата : Big
Режим смешивания : DVD-Video
Продолжительность : 29 м.
Вид битрейта : Постоянный
Битрейт : 256 Кбит/сек
Каналы : 2 канала
Расположение каналов : Front: L R
Частота : 48,0 КГц
Битовая глубина : 16 бит
Метод сжатия : С потерями
Размер потока : 53,2 Мбайт (5%)
Меню
Общее
Полное имя : E:\Архимандрит Амвросий Юрасов. Проповеди. 2009-2010\VIDEO_TS\VTS_01_2.VOB
Формат : MPEG-PS
Размер файла : 1024 Мбайт
Продолжительность : 29 м.
Режим общего битрейта : Переменный
Общий поток : 4842 Кбит/сек
Видео
Идентификатор : 224 (0xE0)
Формат : MPEG Video
Версия формата : Version 2
Профиль формата : Main@Main
Параметр BVOP формата : Да
Параметр матрицы формата : Выборочная
Параметр GOP формата : M=3, N=12
Format_Settings_PictureStructure : Frame
Продолжительность : 29 м.
Вид битрейта : Переменный
Битрейт : 4489 Кбит/сек
Максимальный битрейт : 9500 Кбит/сек
Ширина : 720 пикселей
Высота : 576 пикселей
Соотношение сторон : 16:9
Частота кадров : 25,000 кадров/сек
Стандарт вещания : PAL
Цветовое пространство : YUV
Субдискретизация насыщенности : 4:2:0
Битовая глубина : 8 бит
Тип развёртки : Чересстрочная
Порядок развёртки : Верхнее поле первое
Метод сжатия : С потерями
Бит/(Пиксели*Кадры) : 0.433
Временной код первого кадра : 00:29:03:09
Оригинал временного кода : Group of pictures header
Размер потока : 949 Мбайт (93%)
Аудио
Идентификатор : 189 (0xBD)-128 (0x80)
Формат : AC-3
Формат/Информация : Audio Coding 3
Расширение режима : CM (complete main)
Параметр Endianness формата : Big
Режим смешивания : DVD-Video
Продолжительность : 29 м.
Вид битрейта : Постоянный
Битрейт : 256 Кбит/сек
Каналы : 2 канала
Расположение каналов : Front: L R
Частота : 48,0 КГц
Битовая глубина : 16 бит
Метод сжатия : С потерями
Задержка видео : -200 мс.
Размер потока : 54,1 Мбайт (5%)
Меню
Общее
Полное имя : E:\Архимандрит Амвросий Юрасов. Проповеди. 2009-2010\VIDEO_TS\VTS_01_3.VOB
Формат : MPEG-PS
Размер файла : 1024 Мбайт
Продолжительность : 29 м.
Режим общего битрейта : Переменный
Общий поток : 4823 Кбит/сек
Видео
Идентификатор : 224 (0xE0)
Формат : MPEG Video
Версия формата : Version 2
Профиль формата : Main@Main
Параметр BVOP формата : Да
Параметр матрицы формата : Выборочная
Параметр GOP формата : M=3, N=12
Format_Settings_PictureStructure : Frame
Продолжительность : 29 м.
Вид битрейта : Переменный
Битрейт : 4471 Кбит/сек
Максимальный битрейт : 9500 Кбит/сек
Ширина : 720 пикселей
Высота : 576 пикселей
Соотношение сторон : 16:9
Частота кадров : 25,000 кадров/сек
Стандарт вещания : PAL
Цветовое пространство : YUV
Субдискретизация насыщенности : 4:2:0
Битовая глубина : 8 бит
Тип развёртки : Чересстрочная
Порядок развёртки : Верхнее поле первое
Метод сжатия : С потерями
Бит/(Пиксели*Кадры) : 0.431
Временной код первого кадра : 00:58:37:11
Оригинал временного кода : Group of pictures header
Размер потока : 949 Мбайт (93%)
Аудио
Идентификатор : 189 (0xBD)-128 (0x80)
Формат : AC-3
Формат/Информация : Audio Coding 3
Расширение режима : CM (complete main)
Параметр Endianness формата : Big
Режим смешивания : DVD-Video
Продолжительность : 29 м.
Вид битрейта : Постоянный
Битрейт : 256 Кбит/сек
Каналы : 2 канала
Расположение каналов : Front: L R
Частота : 48,0 КГц
Битовая глубина : 16 бит
Метод сжатия : С потерями
Задержка видео : -72 мс.
Размер потока : 54,4 Мбайт (5%)
Меню
Общее
Полное имя : E:\Архимандрит Амвросий Юрасов. Проповеди. 2009-2010\VIDEO_TS\VTS_01_4.VOB
Формат : MPEG-PS
Размер файла : 1024 Мбайт
Продолжительность : 29 м.
Режим общего битрейта : Переменный
Общий поток : 4881 Кбит/сек
Видео
Идентификатор : 224 (0xE0)
Формат : MPEG Video
Версия формата : Version 2
Профиль формата : Main@Main
Параметр BVOP формата : Да
Параметр матрицы формата : Выборочная
Параметр GOP формата : M=3, N=12
Format_Settings_PictureStructure : Frame
Продолжительность : 29 м.
Вид битрейта : Переменный
Битрейт : 4528 Кбит/сек
Максимальный битрейт : 9500 Кбит/сек
Ширина : 720 пикселей
Высота : 576 пикселей
Соотношение сторон : 16:9
Частота кадров : 25,000 кадров/сек
Стандарт вещания : PAL
Цветовое пространство : YUV
Субдискретизация насыщенности : 4:2:0
Битовая глубина : 8 бит
Тип развёртки : Чересстрочная
Порядок развёртки : Верхнее поле первое
Метод сжатия : С потерями
Бит/(Пиксели*Кадры) : 0.437
Временной код первого кадра : 01:28:18:18
Оригинал временного кода : Group of pictures header
Размер потока : 950 Мбайт (93%)
Аудио
Идентификатор : 189 (0xBD)-128 (0x80)
Формат : AC-3
Формат/Информация : Audio Coding 3
Расширение режима : CM (complete main)
Параметр Endianness формата : Big
Режим смешивания : DVD-Video
Продолжительность : 29 м.
Вид битрейта : Постоянный
Битрейт : 256 Кбит/сек
Каналы : 2 канала
Расположение каналов : Front: L R
Частота : 48,0 КГц
Битовая глубина : 16 бит
Метод сжатия : С потерями
Размер потока : 53,7 Мбайт (5%)
Меню
Общее
Полное имя : E:\Архимандрит Амвросий Юрасов. Проповеди. 2009-2010\VIDEO_TS\VTS_01_5.VOB
Формат : MPEG-PS
Размер файла : 216 Мбайт
Продолжительность : 6 м. 3 с.
Режим общего битрейта : Переменный
Общий поток : 4984 Кбит/сек
Видео
Идентификатор : 224 (0xE0)
Формат : MPEG Video
Версия формата : Version 2
Профиль формата : Main@Main
Параметр BVOP формата : Да
Параметр матрицы формата : Выборочная
Параметр GOP формата : M=3, N=12
Format_Settings_PictureStructure : Frame
Продолжительность : 6 м. 3 с.
Вид битрейта : Переменный
Битрейт : 4629 Кбит/сек
Максимальный битрейт : 9500 Кбит/сек
Ширина : 720 пикселей
Высота : 576 пикселей
Соотношение сторон : 16:9
Частота кадров : 25,000 кадров/сек
Стандарт вещания : PAL
Цветовое пространство : YUV
Субдискретизация насыщенности : 4:2:0
Битовая глубина : 8 бит
Тип развёртки : Чересстрочная
Порядок развёртки : Верхнее поле первое
Метод сжатия : С потерями
Бит/(Пиксели*Кадры) : 0.446
Временной код первого кадра : 01:57:38:10
Оригинал временного кода : Group of pictures header
Размер потока : 200 Мбайт (93%)
Аудио
Идентификатор : 189 (0xBD)-128 (0x80)
Формат : AC-3
Формат/Информация : Audio Coding 3
Расширение режима : CM (complete main)
Параметр Endianness формата : Big
Режим смешивания : DVD-Video
Продолжительность : 6 м. 3 с.
Вид битрейта : Постоянный
Битрейт : 256 Кбит/сек
Каналы : 2 канала
Расположение каналов : Front: L R
Частота : 48,0 КГц
Битовая глубина : 16 бит
Метод сжатия : С потерями
Задержка видео : -56 мс.
Размер потока : 11,1 Мбайт (5%)
Меню
Скриншот меню
Анаморфированный скриншот меню
Скриншоты
Анаморфированные скриншоты
Обложка и диск
Архимандрит Амвросий Юрасов. Проповеди. 2012: http://rutracker.org/forum/viewtopic.php?t=4934322