Архимандрит Амвросий Юрасов. Проповеди. 2012

Архимандрит Амвросий Юрасов. Проповеди. 2012
Название:
Архимандрит Амвросий Юрасов. Проповеди. 2012
Размер:
3.92 GB
63
Скачать
Архимандрит Амвросий Юрасов. Проповеди. 2012
Дата/Год выпуска: 2014
Страна: Россия
Жанр: Православная проповедь
Продолжительность: 02:27:46
Перевод: Не требуется
Русские субтитры: Нет
Оригинальная аудиодорожка: Русский
Описание: Проповеди архимандрита Амвросия Юрасова.
Май - август 2012 г.
Архимандрит Амвросий Юрасов - основатель и духовник Введенского женского монастыря города Иваново, автор книг о вере и спасении.
Доп. информация: Свято-Введенский женский монастырь. г.Иваново.
Меню: Присутствует, на русском, статичное
Сэмпл: https://www.sendspace.com/file/hi3gty
Качество: DVD5
Формат: DVD Video
Видео кодек: MPEG2
Аудио кодек: AC-3
Видео: 720*576 (4:3), PAL 3538 Кбит/сек, 25,000 кадров/сек, MPEG2
Аудио: Русский, 256 Кбит/сек, 2 канала, 48,0 КГц, 16 бит, AC-3
Список проповедей
О смирении
Проповедь в неделю 7-ю по Пасхе
Пятидесятница
Проповедь в праздник Святой Троицы
Бог - это любовь
Проповедь в неделю 6-ю по Пятидесятнице
Заступница усердная
Проповедь в праздник Почаевской иконы Божией Матери
Как избавиться от греха
Проповедь в неделю 10-ю по Пятидесятнице
MediaInfo
Общее
Полное имя : C:\VIDEO_TS\VIDEO_TS.BUP
Формат : DVD Video
Профиль формата : Menu
Размер файла : 32,0 Кбайт
Режим общего битрейта : Переменный
Видео
Идентификатор : 224 (0xE0)
Формат : MPEG Video
Версия формата : Version 2
Вид битрейта : Переменный
Ширина : 720 пикселей
Высота : 576 пикселей
Соотношение сторон : 4:3
Частота кадров : 25,000 кадров/сек
Стандарт вещания : PAL
Метод сжатия : С потерями
Аудио
Формат : AC-3
Формат/Информация : Audio Coding 3
Каналы : 2 канала
Частота : 48,0 КГц
Метод сжатия : С потерями
Общее
Полное имя : C:\VIDEO_TS\VIDEO_TS.IFO
Формат : DVD Video
Профиль формата : Menu
Размер файла : 32,0 Кбайт
Режим общего битрейта : Переменный
Видео
Идентификатор : 224 (0xE0)
Формат : MPEG Video
Версия формата : Version 2
Вид битрейта : Переменный
Ширина : 720 пикселей
Высота : 576 пикселей
Соотношение сторон : 4:3
Частота кадров : 25,000 кадров/сек
Стандарт вещания : PAL
Метод сжатия : С потерями
Аудио
Формат : AC-3
Формат/Информация : Audio Coding 3
Каналы : 2 канала
Частота : 48,0 КГц
Метод сжатия : С потерями
Общее
Полное имя : C:\VIDEO_TS\VTS_01_0.BUP
Формат : DVD Video
Профиль формата : Program
Размер файла : 96,0 Кбайт
Продолжительность : 2 ч. 27 м.
Режим общего битрейта : Переменный
Общий поток : 89 бит/сек
Видео
Идентификатор : 224 (0xE0)
Формат : MPEG Video
Версия формата : Version 2
Продолжительность : 2 ч. 27 м.
Вид битрейта : Переменный
Ширина : 720 пикселей
Высота : 576 пикселей
Соотношение сторон : 4:3
Частота кадров : 25,000 кадров/сек
Стандарт вещания : PAL
Метод сжатия : С потерями
Аудио
Идентификатор : 128 (0x80)
Формат : AC-3
Формат/Информация : Audio Coding 3
Продолжительность : 2 ч. 27 м.
Каналы : 2 канала
Частота : 48,0 КГц
Метод сжатия : С потерями
Язык : Russian
Меню
Продолжительность : 2 ч. 27 м.
00:00:00.000 : Chapter 1
00:07:31.080 : Chapter 2
00:14:48.720 : Chapter 3
00:23:47.520 : Chapter 4
00:33:28.720 : Chapter 5
00:44:01.280 : Chapter 6
00:55:34.560 : Chapter 7
01:04:19.680 : Chapter 8
01:13:37.560 : Chapter 9
01:22:12.000 : Chapter 10
01:31:37.480 : Chapter 11
01:40:54.000 : Chapter 12
01:50:39.840 : Chapter 13
01:59:16.560 : Chapter 14
02:09:21.680 : Chapter 15
02:17:56.040 : Chapter 16
02:25:57.160 : Chapter 17
List (Audio) : 0
Общее
Полное имя : C:\VIDEO_TS\VTS_01_0.IFO
Формат : DVD Video
Профиль формата : Program
Размер файла : 96,0 Кбайт
Продолжительность : 2 ч. 27 м.
Режим общего битрейта : Переменный
Общий поток : 89 бит/сек
Видео
Идентификатор : 224 (0xE0)
Формат : MPEG Video
Версия формата : Version 2
Продолжительность : 2 ч. 27 м.
Вид битрейта : Переменный
Ширина : 720 пикселей
Высота : 576 пикселей
Соотношение сторон : 4:3
Частота кадров : 25,000 кадров/сек
Стандарт вещания : PAL
Метод сжатия : С потерями
Аудио
Идентификатор : 128 (0x80)
Формат : AC-3
Формат/Информация : Audio Coding 3
Продолжительность : 2 ч. 27 м.
Каналы : 2 канала
Частота : 48,0 КГц
Метод сжатия : С потерями
Язык : Russian
Меню
Продолжительность : 2 ч. 27 м.
00:00:00.000 : Chapter 1
00:07:31.080 : Chapter 2
00:14:48.720 : Chapter 3
00:23:47.520 : Chapter 4
00:33:28.720 : Chapter 5
00:44:01.280 : Chapter 6
00:55:34.560 : Chapter 7
01:04:19.680 : Chapter 8
01:13:37.560 : Chapter 9
01:22:12.000 : Chapter 10
01:31:37.480 : Chapter 11
01:40:54.000 : Chapter 12
01:50:39.840 : Chapter 13
01:59:16.560 : Chapter 14
02:09:21.680 : Chapter 15
02:17:56.040 : Chapter 16
02:25:57.160 : Chapter 17
List (Audio) : 0
Общее
Полное имя : C:\VIDEO_TS\VTS_01_0.VOB
Формат : MPEG-PS
Размер файла : 186 Кбайт
Продолжительность : 400 мс.
Режим общего битрейта : Переменный
Общий поток : 3809 Кбит/сек
Библиотека кодирования : (dvd5: Jan 26 2015)
Видео
Идентификатор : 224 (0xE0)
Формат : MPEG Video
Версия формата : Version 2
Профиль формата : Main@Main
Параметр BVOP формата : Да
Параметр матрицы формата : Выборочная
Продолжительность : 400 мс.
Вид битрейта : Переменный
Максимальный битрейт : 8500 Кбит/сек
Ширина : 720 пикселей
Высота : 576 пикселей
Соотношение сторон : 4:3
Частота кадров : 25,000 кадров/сек
Стандарт вещания : PAL
Цветовое пространство : YUV
Субдискретизация насыщенности : 4:2:0
Битовая глубина : 8 бит
Тип развёртки : Прогрессивная
Метод сжатия : С потерями
Временной код первого кадра : 00:00:00:00
Оригинал временного кода : Group of pictures header
Библиотека кодирования : (dvd5: Jan 26 2015)
Текст
Идентификатор : 189 (0xBD)-32 (0x20)
Формат : RLE
Формат/Информация : Run-length encoding
Режим смешивания : DVD-Video
Меню
Общее
Полное имя : C:\VIDEO_TS\VTS_01_1.VOB
Формат : MPEG-PS
Размер файла : 1024 Мбайт
Продолжительность : 38 м.
Режим общего битрейта : Переменный
Общий поток : 3677 Кбит/сек
Библиотека кодирования : (dvd5: Jan 26 2015)
Видео
Идентификатор : 224 (0xE0)
Формат : MPEG Video
Версия формата : Version 2
Профиль формата : Main@Main
Параметр BVOP формата : Да
Параметр матрицы формата : Выборочная
Параметр GOP формата : M=3, N=12
Format_Settings_PictureStructure : Frame
Продолжительность : 38 м.
Вид битрейта : Переменный
Битрейт : 3348 Кбит/сек
Максимальный битрейт : 9500 Кбит/сек
Ширина : 720 пикселей
Высота : 576 пикселей
Соотношение сторон : 4:3
Частота кадров : 25,000 кадров/сек
Стандарт вещания : PAL
Цветовое пространство : YUV
Субдискретизация насыщенности : 4:2:0
Битовая глубина : 8 бит
Тип развёртки : Чересстрочная
Порядок развёртки : Верхнее поле первое
Метод сжатия : С потерями
Бит/(Пиксели*Кадры) : 0.323
Временной код первого кадра : 00:00:00:00
Оригинал временного кода : Group of pictures header
Размер потока : 932 Мбайт (91%)
Библиотека кодирования : (dvd5: Jan 26 2015)
Gop_OpenClosed_FirstFrame : Closed
Аудио
Идентификатор : 189 (0xBD)-128 (0x80)
Формат : AC-3
Формат/Информация : Audio Coding 3
Расширение режима : CM (complete main)
Параметр Endianness формата : Big
Режим смешивания : DVD-Video
Продолжительность : 38 м.
Вид битрейта : Постоянный
Битрейт : 256 Кбит/сек
Каналы : 2 канала
Расположение каналов : Front: L R
Частота : 48,0 КГц
Битовая глубина : 16 бит
Метод сжатия : С потерями
Размер потока : 71,3 Мбайт (7%)
Меню
Общее
Полное имя : C:\VIDEO_TS\VTS_01_2.VOB
Формат : MPEG-PS
Размер файла : 1024 Мбайт
Продолжительность : 36 м.
Режим общего битрейта : Переменный
Общий поток : 3922 Кбит/сек
Видео
Идентификатор : 224 (0xE0)
Формат : MPEG Video
Версия формата : Version 2
Профиль формата : Main@Main
Параметр BVOP формата : Да
Параметр матрицы формата : Выборочная
Параметр GOP формата : M=3, N=12
Format_Settings_PictureStructure : Frame
Продолжительность : 36 м.
Вид битрейта : Переменный
Битрейт : 3588 Кбит/сек
Максимальный битрейт : 9500 Кбит/сек
Ширина : 720 пикселей
Высота : 576 пикселей
Соотношение сторон : 4:3
Частота кадров : 25,000 кадров/сек
Стандарт вещания : PAL
Цветовое пространство : YUV
Субдискретизация насыщенности : 4:2:0
Битовая глубина : 8 бит
Тип развёртки : Чересстрочная
Порядок развёртки : Верхнее поле первое
Метод сжатия : С потерями
Бит/(Пиксели*Кадры) : 0.346
Временной код первого кадра : 00:38:56:16
Оригинал временного кода : Group of pictures header
Размер потока : 936 Мбайт (91%)
Аудио
Идентификатор : 189 (0xBD)-128 (0x80)
Формат : AC-3
Формат/Информация : Audio Coding 3
Расширение режима : CM (complete main)
Параметр Endianness формата : Big
Режим смешивания : DVD-Video
Продолжительность : 36 м.
Вид битрейта : Постоянный
Битрейт : 256 Кбит/сек
Каналы : 2 канала
Расположение каналов : Front: L R
Частота : 48,0 КГц
Битовая глубина : 16 бит
Метод сжатия : С потерями
Задержка видео : -288 мс.
Размер потока : 66,8 Мбайт (7%)
Меню
Общее
Полное имя : C:\VIDEO_TS\VTS_01_3.VOB
Формат : MPEG-PS
Размер файла : 1024 Мбайт
Продолжительность : 38 м.
Режим общего битрейта : Переменный
Общий поток : 3724 Кбит/сек
Видео
Идентификатор : 224 (0xE0)
Формат : MPEG Video
Версия формата : Version 2
Профиль формата : Main@Main
Параметр BVOP формата : Да
Параметр матрицы формата : Выборочная
Параметр GOP формата : M=3, N=12
Format_Settings_PictureStructure : Frame
Продолжительность : 38 м.
Вид битрейта : Переменный
Битрейт : 3394 Кбит/сек
Максимальный битрейт : 9500 Кбит/сек
Ширина : 720 пикселей
Высота : 576 пикселей
Соотношение сторон : 4:3
Частота кадров : 25,000 кадров/сек
Стандарт вещания : PAL
Цветовое пространство : YUV
Субдискретизация насыщенности : 4:2:0
Битовая глубина : 8 бит
Тип развёртки : Чересстрочная
Порядок развёртки : Верхнее поле первое
Метод сжатия : С потерями
Бит/(Пиксели*Кадры) : 0.327
Временной код первого кадра : 01:15:26:10
Оригинал временного кода : Group of pictures header
Размер потока : 933 Мбайт (91%)
Аудио
Идентификатор : 189 (0xBD)-128 (0x80)
Формат : AC-3
Формат/Информация : Audio Coding 3
Расширение режима : CM (complete main)
Параметр Endianness формата : Big
Режим смешивания : DVD-Video
Продолжительность : 38 м.
Вид битрейта : Постоянный
Битрейт : 256 Кбит/сек
Каналы : 2 канала
Расположение каналов : Front: L R
Частота : 48,0 КГц
Битовая глубина : 16 бит
Метод сжатия : С потерями
Задержка видео : -240 мс.
Размер потока : 70,4 Мбайт (7%)
Меню
Общее
Полное имя : C:\VIDEO_TS\VTS_01_4.VOB
Формат : MPEG-PS
Размер файла : 938 Мбайт
Продолжительность : 33 м.
Режим общего битрейта : Переменный
Общий поток : 3871 Кбит/сек
Видео
Идентификатор : 224 (0xE0)
Формат : MPEG Video
Версия формата : Version 2
Профиль формата : Main@Main
Параметр BVOP формата : Да
Параметр матрицы формата : Выборочная
Параметр GOP формата : M=3, N=12
Format_Settings_PictureStructure : Frame
Продолжительность : 33 м.
Вид битрейта : Переменный
Битрейт : 3538 Кбит/сек
Максимальный битрейт : 9500 Кбит/сек
Ширина : 720 пикселей
Высота : 576 пикселей
Соотношение сторон : 4:3
Частота кадров : 25,000 кадров/сек
Стандарт вещания : PAL
Цветовое пространство : YUV
Субдискретизация насыщенности : 4:2:0
Битовая глубина : 8 бит
Тип развёртки : Чересстрочная
Порядок развёртки : Верхнее поле первое
Метод сжатия : С потерями
Бит/(Пиксели*Кадры) : 0.341
Временной код первого кадра : 01:53:53:07
Оригинал временного кода : Group of pictures header
Размер потока : 857 Мбайт (91%)
Аудио
Идентификатор : 189 (0xBD)-128 (0x80)
Формат : AC-3
Формат/Информация : Audio Coding 3
Расширение режима : CM (complete main)
Параметр Endianness формата : Big
Режим смешивания : DVD-Video
Продолжительность : 33 м.
Вид битрейта : Постоянный
Битрейт : 256 Кбит/сек
Каналы : 2 канала
Расположение каналов : Front: L R
Частота : 48,0 КГц
Битовая глубина : 16 бит
Метод сжатия : С потерями
Задержка видео : -320 мс.
Размер потока : 62,1 Мбайт (7%)
Меню
DVDInfo
Title:
Size: 3.92 Gb ( 4 107 012,00 KBytes ) - DVD-5
Enabled regions: 1, 2, 3, 4, 5, 6, 7, 8
VTS_01 :
Play Length: 02:27:46
Video: PAL 4:3 (720x576) VBR
Audio:
Russian (Dolby AC3, 2 ch)
* Menus Information *
VIDEO_TS Menu
Video:
PAL 4:3 (720x576) VBR
Audio:
Not specified (Dolby AC3, 2 ch)
Language Unit :
VTS_01 Menu
Video:
PAL 4:3 (720x576) VBR
Language Unit :
Root Menu
Скриншоты
Скриншот меню
Обложка и диск
Архимандрит Амвросий Юрасов. Проповеди. 2009-2010: http://rutracker.org/forum/viewtopic.php?t=4929461