Ювенальная юстиция - угроза семье, обществу, государству (Галина Царёва)

Ювенальная юстиция - угроза семье, обществу, государству (Галина Царёва)
Название:
Ювенальная юстиция - угроза семье, обществу, государству (Галина Царёва)
Размер:
4.31 GB
28
Скачать
Ювенальная юстиция - угроза семье, обществу, государству
Год выпуска: 2009
Страна: Россия
Жанр: Православно-познавательный
Продолжительность: 02:34:24
Перевод: Не требуется
Русские субтитры: нет
Оригинальная аудиодорожка: русский
Режиссер: Г. Царёва
Описание: Главной целью врагов России является разрушение семьи, лишение отцов и матерей их Конституционных прав на воспитание собственных детей в соответствии со своими нравственными и религиозными убеждениями. Сейчас в России пытаются ввести так называемую "ювенальную юстицию" под благовидным предлогом заменить малолетним преступникам тюрьму профилактическими беседами и защитить наших детей от "произвола родителей". На самом деле преследуются иные цели. И мы вскоре получим: обязательное преподавание детям с первого класса "сексуального просвещения" и "основ безопасного секса", "толерантного" отношения к педерастии и однополым бракам. Организацию тотальной системы доносительства детей на собственных родителей и педагогов, фактически отменяющую библейскую заповедь "почитай отца своего и мать". Такое мы уже проходили. Тотальное стукачество, "Павлики Морозовы"- это уже было. Но нам упорно предлагают наступать на те же грабли. "Ювенальные суды", имеют право требовать от родителей не препятствовать растлению своих детей, а если те не согласны, то- изымать детей из семьи, отдавать их в приюты или другие семью, не исключая, зарубежных. Так якобы заботясь о детях эти лукавые доброхоты сделают наших детей сиротами при живых родителях. Отшлёпал ребёнка? Не разрешил смотреть порносайты? Заставил убирать в своей комнате или делать по утрам зарядку? Или карманных денег даешь меньше, чем дают одноклассникам? Уже завтра за все это твоего ребенка смогут отобрать решением "ювенального суда" на совершенно законных основаниях. Только за прошлый год в Германии принудительно изъято из семей более 70 тысяч детей! Из них половина- с формулировкой "недостаточно хорошее материальное положение семьи". Представьте, сколько миллионов детей могут "за бедность" отобрать в Росии! Но и состоятельным родителям обольщаться особо не стоит: нет лучшего способа шантажировать и вымогать деньги, чем угрозой законным образом отобрать у вас ребенка. Задумайтесь: нужен ли нам подобный "передовой западный опыт"?
Доп. информация: Меню нет.
Сэмпл: https://www.sendspace.com/file/v0gf9e
Качество: DVD5
Формат: DVD Video
Видео: 3729 Кбит/сек, PAL 720*576 (4:3), в 25,000 кадр/сек, MPEG2
Аудио: Русский, 192 Кбит/сек, 48,0 КГц, 2 канала(ов), AC-3
DVDInfo
Title: Ювенальная юстиция - угроза семье, обществу, государству
Size: 4.31 Gb ( 4 521 060 KBytes ) - DVD-5
Enabled regions: 1, 2, 3, 4, 5, 6, 7, 8
VTS_01 :
Play Length: 02:34:24
Video: PAL 4:3 (720x576) VBR
Audio:
English (Dolby AC3, 2 ch)
Menu Video:
PAL 4:3 (720x576) VBR
Menu Subtitles:
Not specified
Menu English Language Unit :
Root Menu
MediaInfo
Общее
Полное имя : K:\Monar.ru\Видео\Документальные фильмы\Познавательные фильмы\Ювенальная юстиция - угроза семье, обществу, государству\VIDEO_TS\VIDEO_TS.BUP
Формат : DVD Video
Профиль формата : Menu
Размер файла : 12,0 Кбайт
Режим общего битрейта : Переменный
Видео
Идентификатор : 224 (0xE0)
Формат : MPEG Video
Версия формата : Version 2
Вид битрейта : Переменный
Ширина : 720 пикселей
Высота : 576 пикселей
Соотношение сторон : 4:3
Частота кадров : 25,000 кадров/сек
Стандарт вещания : PAL
Метод сжатия : С потерями
Текст
Формат : RLE
Формат/Информация : Run-length encoding
Битовая глубина : 2 бит
Общее
Полное имя : K:\Monar.ru\Видео\Документальные фильмы\Познавательные фильмы\Ювенальная юстиция - угроза семье, обществу, государству\VIDEO_TS\VIDEO_TS.IFO
Формат : DVD Video
Профиль формата : Menu
Размер файла : 12,0 Кбайт
Режим общего битрейта : Переменный
Видео
Идентификатор : 224 (0xE0)
Формат : MPEG Video
Версия формата : Version 2
Вид битрейта : Переменный
Ширина : 720 пикселей
Высота : 576 пикселей
Соотношение сторон : 4:3
Частота кадров : 25,000 кадров/сек
Стандарт вещания : PAL
Метод сжатия : С потерями
Текст
Формат : RLE
Формат/Информация : Run-length encoding
Битовая глубина : 2 бит
Общее
Полное имя : K:\Monar.ru\Видео\Документальные фильмы\Познавательные фильмы\Ювенальная юстиция - угроза семье, обществу, государству\VIDEO_TS\VIDEO_TS.VOB
Формат : MPEG-PS
Размер файла : 10,0 Кбайт
Продолжительность : 40 мс.
Общий поток : 2048 Кбит/сек
Видео
Идентификатор : 224 (0xE0)
Формат : MPEG Video
Версия формата : Version 2
Профиль формата : Main@Main
Параметр BVOP формата : Нет
Параметр матрицы формата : Выборочная
Продолжительность : 40 мс.
Максимальный битрейт : 9000 Кбит/сек
Ширина : 720 пикселей
Высота : 576 пикселей
Соотношение сторон : 4:3
Частота кадров : 25,000 кадров/сек
Стандарт вещания : PAL
Цветовое пространство : YUV
Субдискретизация насыщенности : 4:2:0
Битовая глубина : 8 бит
Тип развёртки : Прогрессивная
Порядок развёртки : Верхнее поле первое
Метод сжатия : С потерями
Временной код первого кадра : 00:00:00:00
Оригинал временного кода : Group of pictures header
Основные цвета : BT.601 NTSC
Характеристики трансфера : BT.601
Коэффициенты матрицы : BT.601
Меню
Общее
Полное имя : K:\Monar.ru\Видео\Документальные фильмы\Познавательные фильмы\Ювенальная юстиция - угроза семье, обществу, государству\VIDEO_TS\VTS_01_0.BUP
Формат : DVD Video
Профиль формата : Program
Размер файла : 60,0 Кбайт
Продолжительность : 2 ч. 34 м.
Режим общего битрейта : Переменный
Общий поток : 53 бит/сек
Видео
Идентификатор : 224 (0xE0)
Формат : MPEG Video
Версия формата : Version 2
Продолжительность : 2 ч. 34 м.
Вид битрейта : Переменный
Ширина : 720 пикселей
Высота : 576 пикселей
Соотношение сторон : 4:3
Частота кадров : 25,000 кадров/сек
Стандарт вещания : PAL
Метод сжатия : С потерями
Аудио
Идентификатор : 128 (0x80)
Формат : AC-3
Формат/Информация : Audio Coding 3
Продолжительность : 2 ч. 34 м.
Каналы : 2 канала
Частота : 48,0 КГц
Метод сжатия : С потерями
Язык : English
Меню
Продолжительность : 2 ч. 34 м.
00:00:00.000 : Chapter 1
00:27:25.960 : Chapter 2
00:35:38.200 : Chapter 3
00:37:16.840 : Chapter 4
00:42:25.640 : Chapter 5
00:49:35.920 : Chapter 6
01:04:47.600 : Chapter 7
01:11:51.800 : Chapter 8
01:18:09.080 : Chapter 9
01:29:44.240 : Chapter 10
01:39:14.880 : Chapter 11
01:54:49.640 : Chapter 12
02:06:07.440 : Chapter 13
02:13:52.520 : Chapter 14
02:28:01.680 : Chapter 15
02:30:57.160 : Chapter 16
02:32:04.160 : Chapter 17
02:34:24.360 : Chapter 18
List (Audio) : 0
Общее
Полное имя : K:\Monar.ru\Видео\Документальные фильмы\Познавательные фильмы\Ювенальная юстиция - угроза семье, обществу, государству\VIDEO_TS\VTS_01_0.IFO
Формат : DVD Video
Профиль формата : Program
Размер файла : 60,0 Кбайт
Продолжительность : 2 ч. 34 м.
Режим общего битрейта : Переменный
Общий поток : 53 бит/сек
Видео
Идентификатор : 224 (0xE0)
Формат : MPEG Video
Версия формата : Version 2
Продолжительность : 2 ч. 34 м.
Вид битрейта : Переменный
Ширина : 720 пикселей
Высота : 576 пикселей
Соотношение сторон : 4:3
Частота кадров : 25,000 кадров/сек
Стандарт вещания : PAL
Метод сжатия : С потерями
Аудио
Идентификатор : 128 (0x80)
Формат : AC-3
Формат/Информация : Audio Coding 3
Продолжительность : 2 ч. 34 м.
Каналы : 2 канала
Частота : 48,0 КГц
Метод сжатия : С потерями
Язык : English
Меню
Продолжительность : 2 ч. 34 м.
00:00:00.000 : Chapter 1
00:27:25.960 : Chapter 2
00:35:38.200 : Chapter 3
00:37:16.840 : Chapter 4
00:42:25.640 : Chapter 5
00:49:35.920 : Chapter 6
01:04:47.600 : Chapter 7
01:11:51.800 : Chapter 8
01:18:09.080 : Chapter 9
01:29:44.240 : Chapter 10
01:39:14.880 : Chapter 11
01:54:49.640 : Chapter 12
02:06:07.440 : Chapter 13
02:13:52.520 : Chapter 14
02:28:01.680 : Chapter 15
02:30:57.160 : Chapter 16
02:32:04.160 : Chapter 17
02:34:24.360 : Chapter 18
List (Audio) : 0
Общее
Полное имя : K:\Monar.ru\Видео\Документальные фильмы\Познавательные фильмы\Ювенальная юстиция - угроза семье, обществу, государству\VIDEO_TS\VTS_01_0.VOB
Формат : MPEG-PS
Размер файла : 10,0 Кбайт
Продолжительность : 40 мс.
Общий поток : 2048 Кбит/сек
Видео
Идентификатор : 224 (0xE0)
Формат : MPEG Video
Версия формата : Version 2
Профиль формата : Main@Main
Параметр BVOP формата : Нет
Параметр матрицы формата : Выборочная
Продолжительность : 40 мс.
Максимальный битрейт : 9000 Кбит/сек
Ширина : 720 пикселей
Высота : 576 пикселей
Соотношение сторон : 4:3
Частота кадров : 25,000 кадров/сек
Стандарт вещания : PAL
Цветовое пространство : YUV
Субдискретизация насыщенности : 4:2:0
Битовая глубина : 8 бит
Тип развёртки : Прогрессивная
Порядок развёртки : Верхнее поле первое
Метод сжатия : С потерями
Временной код первого кадра : 00:00:00:00
Оригинал временного кода : Group of pictures header
Основные цвета : BT.601 NTSC
Характеристики трансфера : BT.601
Коэффициенты матрицы : BT.601
Меню
Общее
Полное имя : K:\Monar.ru\Видео\Документальные фильмы\Познавательные фильмы\Ювенальная юстиция - угроза семье, обществу, государству\VIDEO_TS\VTS_01_1.VOB
Формат : MPEG-PS
Размер файла : 1024 Мбайт
Продолжительность : 35 м.
Режим общего битрейта : Переменный
Общий поток : 4000 Кбит/сек
Видео
Идентификатор : 224 (0xE0)
Формат : MPEG Video
Версия формата : Version 2
Профиль формата : Main@Main
Параметр BVOP формата : Да
Параметр матрицы формата : По умолчанию
Параметр GOP формата : M=3, N=12
Format_Settings_PictureStructure : Frame
Продолжительность : 35 м.
Вид битрейта : Переменный
Битрейт : 3729 Кбит/сек
Максимальный битрейт : 8000 Кбит/сек
Ширина : 720 пикселей
Высота : 576 пикселей
Соотношение сторон : 4:3
Частота кадров : 25,000 кадров/сек
Стандарт вещания : PAL
Цветовое пространство : YUV
Субдискретизация насыщенности : 4:2:0
Битовая глубина : 8 бит
Тип развёртки : Чересстрочная
Порядок развёртки : Нижнее поле первое
Метод сжатия : С потерями
Бит/(Пиксели*Кадры) : 0.360
Временной код первого кадра : 00:00:00:00
Оригинал временного кода : Group of pictures header
Размер потока : 954 Мбайт (93%)
Аудио
Идентификатор : 189 (0xBD)-128 (0x80)
Формат : AC-3
Формат/Информация : Audio Coding 3
Расширение режима : CM (complete main)
Параметр Endianness формата : Big
Режим смешивания : DVD-Video
Продолжительность : 35 м.
Вид битрейта : Постоянный
Битрейт : 192 Кбит/сек
Каналы : 2 канала
Расположение каналов : Front: L R
Частота : 48,0 КГц
Битовая глубина : 16 бит
Метод сжатия : С потерями
Размер потока : 49,1 Мбайт (5%)
Меню
Общее
Полное имя : K:\Monar.ru\Видео\Документальные фильмы\Познавательные фильмы\Ювенальная юстиция - угроза семье, обществу, государству\VIDEO_TS\VTS_01_2.VOB
Формат : MPEG-PS
Размер файла : 1024 Мбайт
Продолжительность : 35 м.
Режим общего битрейта : Переменный
Общий поток : 3998 Кбит/сек
Видео
Идентификатор : 224 (0xE0)
Формат : MPEG Video
Версия формата : Version 2
Профиль формата : Main@Main
Параметр BVOP формата : Да
Параметр матрицы формата : По умолчанию
Параметр GOP формата : M=3, N=12
Format_Settings_PictureStructure : Frame
Продолжительность : 35 м.
Вид битрейта : Переменный
Битрейт : 3726 Кбит/сек
Максимальный битрейт : 8000 Кбит/сек
Ширина : 720 пикселей
Высота : 576 пикселей
Соотношение сторон : 4:3
Частота кадров : 25,000 кадров/сек
Стандарт вещания : PAL
Цветовое пространство : YUV
Субдискретизация насыщенности : 4:2:0
Битовая глубина : 8 бит
Тип развёртки : Чересстрочная
Порядок развёртки : Нижнее поле первое
Метод сжатия : С потерями
Бит/(Пиксели*Кадры) : 0.359
Временной код первого кадра : 00:35:47:18
Оригинал временного кода : Group of pictures header
Размер потока : 954 Мбайт (93%)
Аудио
Идентификатор : 189 (0xBD)-128 (0x80)
Формат : AC-3
Формат/Информация : Audio Coding 3
Расширение режима : CM (complete main)
Параметр Endianness формата : Big
Режим смешивания : DVD-Video
Продолжительность : 35 м.
Вид битрейта : Постоянный
Битрейт : 192 Кбит/сек
Каналы : 2 канала
Расположение каналов : Front: L R
Частота : 48,0 КГц
Битовая глубина : 16 бит
Метод сжатия : С потерями
Задержка видео : -424 мс.
Размер потока : 49,2 Мбайт (5%)
Меню
Общее
Полное имя : K:\Monar.ru\Видео\Документальные фильмы\Познавательные фильмы\Ювенальная юстиция - угроза семье, обществу, государству\VIDEO_TS\VTS_01_3.VOB
Формат : MPEG-PS
Размер файла : 1024 Мбайт
Продолжительность : 35 м.
Режим общего битрейта : Переменный
Общий поток : 3998 Кбит/сек
Видео
Идентификатор : 224 (0xE0)
Формат : MPEG Video
Версия формата : Version 2
Профиль формата : Main@Main
Параметр BVOP формата : Да
Параметр матрицы формата : По умолчанию
Параметр GOP формата : M=3, N=12
Format_Settings_PictureStructure : Frame
Продолжительность : 35 м.
Вид битрейта : Переменный
Битрейт : 3727 Кбит/сек
Максимальный битрейт : 8000 Кбит/сек
Ширина : 720 пикселей
Высота : 576 пикселей
Соотношение сторон : 4:3
Частота кадров : 25,000 кадров/сек
Стандарт вещания : PAL
Цветовое пространство : YUV
Субдискретизация насыщенности : 4:2:0
Битовая глубина : 8 бит
Тип развёртки : Чересстрочная
Порядок развёртки : Нижнее поле первое
Метод сжатия : С потерями
Бит/(Пиксели*Кадры) : 0.359
Временной код первого кадра : 01:11:36:00
Оригинал временного кода : Group of pictures header
Размер потока : 954 Мбайт (93%)
Аудио
Идентификатор : 189 (0xBD)-128 (0x80)
Формат : AC-3
Формат/Информация : Audio Coding 3
Расширение режима : CM (complete main)
Параметр Endianness формата : Big
Режим смешивания : DVD-Video
Продолжительность : 35 м.
Вид битрейта : Постоянный
Битрейт : 192 Кбит/сек
Каналы : 2 канала
Расположение каналов : Front: L R
Частота : 48,0 КГц
Битовая глубина : 16 бит
Метод сжатия : С потерями
Задержка видео : -128 мс.
Размер потока : 49,2 Мбайт (5%)
Меню
Общее
Полное имя : K:\Monar.ru\Видео\Документальные фильмы\Познавательные фильмы\Ювенальная юстиция - угроза семье, обществу, государству\VIDEO_TS\VTS_01_4.VOB
Формат : MPEG-PS
Размер файла : 1024 Мбайт
Продолжительность : 35 м.
Режим общего битрейта : Переменный
Общий поток : 3999 Кбит/сек
Видео
Идентификатор : 224 (0xE0)
Формат : MPEG Video
Версия формата : Version 2
Профиль формата : Main@Main
Параметр BVOP формата : Да
Параметр матрицы формата : По умолчанию
Параметр GOP формата : M=3, N=12
Format_Settings_PictureStructure : Frame
Продолжительность : 35 м.
Вид битрейта : Переменный
Битрейт : 3727 Кбит/сек
Максимальный битрейт : 8000 Кбит/сек
Ширина : 720 пикселей
Высота : 576 пикселей
Соотношение сторон : 4:3
Частота кадров : 25,000 кадров/сек
Стандарт вещания : PAL
Цветовое пространство : YUV
Субдискретизация насыщенности : 4:2:0
Битовая глубина : 8 бит
Тип развёртки : Чересстрочная
Порядок развёртки : Нижнее поле первое
Метод сжатия : С потерями
Бит/(Пиксели*Кадры) : 0.360
Временной код первого кадра : 01:47:24:10
Оригинал временного кода : Group of pictures header
Размер потока : 954 Мбайт (93%)
Аудио
Идентификатор : 189 (0xBD)-128 (0x80)
Формат : AC-3
Формат/Информация : Audio Coding 3
Расширение режима : CM (complete main)
Параметр Endianness формата : Big
Режим смешивания : DVD-Video
Продолжительность : 35 м.
Вид битрейта : Постоянный
Битрейт : 192 Кбит/сек
Каналы : 2 канала
Расположение каналов : Front: L R
Частота : 48,0 КГц
Битовая глубина : 16 бит
Метод сжатия : С потерями
Задержка видео : -80 мс.
Размер потока : 49,2 Мбайт (5%)
Меню
Общее
Полное имя : K:\Monar.ru\Видео\Документальные фильмы\Познавательные фильмы\Ювенальная юстиция - угроза семье, обществу, государству\VIDEO_TS\VTS_01_5.VOB
Формат : MPEG-PS
Размер файла : 319 Мбайт
Продолжительность : 11 м.
Режим общего битрейта : Переменный
Общий поток : 3982 Кбит/сек
Видео
Идентификатор : 224 (0xE0)
Формат : MPEG Video
Версия формата : Version 2
Профиль формата : Main@Main
Параметр BVOP формата : Да
Параметр матрицы формата : По умолчанию
Параметр GOP формата : M=3, N=12
Format_Settings_PictureStructure : Frame
Продолжительность : 11 м.
Вид битрейта : Переменный
Битрейт : 3711 Кбит/сек
Максимальный битрейт : 8000 Кбит/сек
Ширина : 720 пикселей
Высота : 576 пикселей
Соотношение сторон : 4:3
Частота кадров : 25,000 кадров/сек
Стандарт вещания : PAL
Цветовое пространство : YUV
Субдискретизация насыщенности : 4:2:0
Битовая глубина : 8 бит
Тип развёртки : Чересстрочная
Порядок развёртки : Нижнее поле первое
Метод сжатия : С потерями
Бит/(Пиксели*Кадры) : 0.358
Временной код первого кадра : 02:23:12:13
Оригинал временного кода : Group of pictures header
Размер потока : 297 Мбайт (93%)
Аудио
Идентификатор : 189 (0xBD)-128 (0x80)
Формат : AC-3
Формат/Информация : Audio Coding 3
Расширение режима : CM (complete main)
Параметр Endianness формата : Big
Режим смешивания : DVD-Video
Продолжительность : 11 м.
Вид битрейта : Постоянный
Битрейт : 192 Кбит/сек
Каналы : 2 канала
Расположение каналов : Front: L R
Частота : 48,0 КГц
Битовая глубина : 16 бит
Метод сжатия : С потерями
Задержка видео : -232 мс.
Размер потока : 15,4 Мбайт (5%)
Меню
Скриншоты
Анаморфированные скриншоты