Священство и Царство (Студия "Слово")

Священство и Царство (Студия "Слово")
Название:
Священство и Царство (Студия "Слово")
Размер:
1.27 GB
12.5000
16
2
Скачать
Священство и Царство
Год выпуска: 2014
Страна: Россия
Жанр: Православно-познавательный
Продолжительность: 03:13:40
Перевод: Не требуется
Русские субтитры: нет
Оригинальная аудиодорожка: русский
Режиссер: Студия "Слово"
Описание: Отсутствие государственной идеологии в современной России, обернулось национальной катастрофой для русского народа и других народов, живущих России. Нет смысла описывать все масштабы этой катастрофы. Все мы являемся свидетелями разрушительных процессов в нашей стране, которые произошли за последние четверть века.
Государственная идея является главным фундаментом, на котором строится любое государство. Основной Российской идеей, способной воскресить угасающие духовные силы нашего народа и мобилизовать его на великие подвиги, является возрождение законной Монархии в России.
Самодержавие в современной России должно быть установлено в форме Теократической Монархии, как власти от Бога. Единоначалие существует на Небесах, и на Земле должно быть единоначалие. Термин «симфония и разделение властей» не годится для Царства Божьего, как теократической системы правления на Земле, созданной по подобию Небесной. Поэтому православный Самодержец - Помазанник Божий - только Богом ограниченный единовластный Государь всея Руси и самой Церкви.
Большинство иерархов Православной Церкви не поддержали Монархию. В Царской власти духовенство видело харизматического конкурента. Вместе с министрами и генералами, они фактически совершили грех предательства Государя-мученика Николая II. В лице Царя, был предан и обезглавлен весь православный Русский народ - единственный на земле хранитель чистоты Христианской Веры. Именно он понес невиданные в истории мучения и жертвы.
Всё это требует покаяния и исправления, как на личном, так и на общественном уровне. Для этого надлежит созвать чрезвычайный покаянный Архиерейский Собор, где открыто и всесторонне необходимо обсудить все истоки и причины Русской трагедии; разработать и принять итоговый документ о покаянии духовенства Русской Православной Церкви перед Богом, Царём и Русским народом; и очистить Церковь от пагубы враждебных либеральных идей.
Выступают с докладами Владимир Осипов, Михаил Бабкин, Владимир Карпец, Владимир Семенко, Валерий Архипов, Сергей Скоробогатов.
Доп. информация: Рип сделан с этого исходника: http://rutracker.org/forum/viewtopic.php?t=4967346
Сэмпл: https://www.sendspace.com/file/xcjg0c
Качество: DVDRip
Формат: AVI
Видео: 799 Кбит/сек, 720*544 (4:3), 25,000 кадров/сек, XviD
Аудио: Русский, 128 Кбит/сек, 48,0 КГц, 2 канала, MP3
MediaInfo
Общее
Полное имя : F:\MONAR.RU\Видео\Познавательные фильмы\Священство и Царство.avi
Формат : AVI
Формат/Информация : Audio Video Interleave
Размер файла : 1,27 Гбайт
Продолжительность : 3 ч. 14 м.
Общий поток : 937 Кбит/сек
Видео
Идентификатор : 0
Формат : MPEG-4 Visual
Профиль формата : Advanced Simple@L5
Параметр BVOP формата : 2
Параметр QPel формата : Нет
Параметр GMC формата : Без точки перехода
Параметр матрицы формата : Выборочная
Идентификатор кодека : XVID
Идентификатор кодека/Подсказка : XviD
Продолжительность : 3 ч. 14 м.
Битрейт : 799 Кбит/сек
Ширина : 720 пикселей
Высота : 544 пикселя
Соотношение сторон : 4:3
Частота кадров : 25,000 кадров/сек
Цветовое пространство : YUV
Субдискретизация насыщенности : 4:2:0
Битовая глубина : 8 бит
Тип развёртки : Прогрессивная
Метод сжатия : С потерями
Бит/(Пиксели*Кадры) : 0.082
Размер потока : 1,09 Гбайт (85%)
Библиотека кодирования : XviD 1.2.1 (UTC 2008-12-04)
Аудио
Идентификатор : 1
Формат : MPEG Audio
Версия формата : Version 1
Профиль формата : Layer 3
Идентификатор кодека : 55
Идентификатор кодека/Подсказка : MP3
Продолжительность : 3 ч. 14 м.
Продолжительность оригинала : 3 ч. 14 м.
Вид битрейта : Постоянный
Битрейт : 128 Кбит/сек
Каналы : 2 канала
Частота : 48,0 КГц
Метод сжатия : С потерями
Размер потока : 178 Мбайт (14%)
Выравнивание : Соединение по промежуткам
Продолжительность промежутка : 40 мс. (1,00 видеокадр)
Скриншоты