Уничтожение духовной свободы как угроза национальной безопасности России (07.12.14) (Студия православных фильмов во имя Апостола и Евангелиста Иоанна Богослова)

Уничтожение духовной свободы как угроза национальной безопасности России (07.12.14) (Студия православных фильмов во имя Апостола и Евангелиста Иоанна Богослова)
Название:
Уничтожение духовной свободы как угроза национальной безопасности России (07.12.14) (Студия православных фильмов во имя Апостола и Евангелиста Иоанна Богослова)
Размер:
286.5 MB
31
Скачать
Уничтожение духовной свободы как угроза национальной безопасности России
Дата/Год выпуска: 07.12.2014
Страна: Россия
Жанр: Православно-познавательный
Продолжительность: 00:53:36
Перевод: Не требуется
Русские субтитры: нет
Оригинальная аудиодорожка: русский
Режиссер: Студия православных фильмов во имя Апостола и Евангелиста Иоанна Богослова
Описание: Вниманию благочестивого зрителя предлагаются: вступительное слово И.Ю. Чепурной, доклад В.Н. Осипова и В.П. Семенко, заключительное слово отца Виктора Уцзнецова. Глава СХВ В.Н. Осипов предложил почтить вставанием память скончавшегося 19 ноября замечательного патриота-державника Сергея Антоновича Шатохина.
В своем докладе «В одной штабной комнате» Осипов напомнил, что Ватикан – лютый враг России и Православия. Что паписты составляли 50% боевиков русофобского майдана в Киеве, что т.н. 8-й собор готовится общими усилиями США, НАТО и Католической церкви, которую наши иуды почему-то стали именовать «сестринской». Известный православный публицист В.П. Семенко определил христианское и либеральное понимание свободы, которые прямо противоположны, ибо свобода в Писании – это свобода от греха, а сатана внедряет в сознание людей идею альтернативы, т.н. свободу выбора.
Участники форума вновь проявили полное единодушие в оценке разбойничьего, экуменического и русофобского 8-го вселенского собора, который не должен состояться.
Сэмпл: https://www.sendspace.com/file/so7ud1
Качество: WebRip
Формат: AVI
Видео: 610 Кбит/сек, 512*384 (4:3), 25,000 кадров/сек, XviD
Аудио: Русский, 128 Кбит/сек, 44,1 КГц, 2 канала, MP3
MediaInfo
Общее
Полное имя : F:\MONAR.RU\Видео\Познавательные фильмы\Уничтожение духовной свободы как угроза национальной безопасности России.avi
Формат : AVI
Формат/Информация : Audio Video Interleave
Размер файла : 287 Мбайт
Продолжительность : 53 м.
Общий поток : 747 Кбит/сек
Видео
Идентификатор : 0
Формат : MPEG-4 Visual
Профиль формата : Advanced Simple@L5
Параметр BVOP формата : 2
Параметр QPel формата : Нет
Параметр GMC формата : Без точки перехода
Параметр матрицы формата : Выборочная
Идентификатор кодека : XVID
Идентификатор кодека/Подсказка : XviD
Продолжительность : 53 м.
Битрейт : 610 Кбит/сек
Ширина : 512 пикселей
Высота : 384 пикселя
Соотношение сторон : 4:3
Частота кадров : 25,000 кадров/сек
Цветовое пространство : YUV
Субдискретизация насыщенности : 4:2:0
Битовая глубина : 8 бит
Тип развёртки : Прогрессивная
Метод сжатия : С потерями
Бит/(Пиксели*Кадры) : 0.124
Размер потока : 234 Мбайт (82%)
Библиотека кодирования : XviD 1.2.1 (UTC 2008-12-04)
Аудио
Идентификатор : 1
Формат : MPEG Audio
Версия формата : Version 1
Профиль формата : Layer 3
Идентификатор кодека : 55
Идентификатор кодека/Подсказка : MP3
Продолжительность : 53 м.
Продолжительность оригинала : 53 м.
Вид битрейта : Постоянный
Битрейт : 128 Кбит/сек
Каналы : 2 канала
Частота : 44,1 КГц
Метод сжатия : С потерями
Размер потока : 49,1 Мбайт (17%)
Выравнивание : Соединение по промежуткам
Продолжительность промежутка : 40 мс. (1,00 видеокадр)
Библиотека кодирования : LAME3.98.2
Скриншоты