Беседа отца Виктора Кузнецова ''Грандиозная афера Шарли Эбдо'' (26.01.15) (Студия православных фильмов во имя Апостола и Евангелиста Иоанна Богослова)

Беседа отца Виктора Кузнецова ''Грандиозная афера Шарли Эбдо'' (26.01.15) (Студия православных фильмов во имя Апостола и Евангелиста Иоанна Богослова)
Название:
Беседа отца Виктора Кузнецова ''Грандиозная афера Шарли Эбдо'' (26.01.15) (Студия православных фильмов во имя Апостола и Евангелиста Иоанна Богослова)
Размер:
263.1 MB
19
Скачать
Беседа отца Виктора Кузнецова ''Грандиозная афера Шарли Эбдо''
Дата/Год выпуска: 26.01.15
Страна: Россия
Жанр: Православные беседы
Продолжительность: 00:48:03
Перевод: Не требуется
Русские субтитры: нет
Оригинальная аудиодорожка: русский
Режиссер: Студия православных фильмов во имя Апостола и Евангелиста Иоанна Богослова
Описание: Отец Виктор Кузнецов разъясняет три основных последствия, которые стяжала мировая закулиса терактом в парижской редакции: 1) отвод глаз от злодеяний настоящих государств-террористов; 2) романтизация извращений; 3) нагнетания атмосферы ненависти к мусульманскому миру в Европе.
Сэмпл: https://www.sendspace.com/file/9pkdqa
Качество: WebRip
формат: AVI
Видео: 620 Кбит/сек, 640*480 (4:3), 25,000 кадров/сек, XviD
Аудио: Русский, 128 Кбит/сек, 44,1 КГц, 2 канала, MP3
MediaInfo
Общее
Полное имя : F:\MONAR.RU\Видео\Познавательные фильмы\Беседа отца Виктора Кузнецова ''Грандиозная афера Шарли Эбдо''.avi
Формат : AVI
Формат/Информация : Audio Video Interleave
Размер файла : 263 Мбайт
Продолжительность : 48 м.
Общий поток : 760 Кбит/сек
Видео
Идентификатор : 0
Формат : MPEG-4 Visual
Профиль формата : Advanced Simple@L5
Параметр BVOP формата : 2
Параметр QPel формата : Нет
Параметр GMC формата : Без точки перехода
Параметр матрицы формата : Выборочная
Идентификатор кодека : XVID
Идентификатор кодека/Подсказка : XviD
Продолжительность : 48 м.
Битрейт : 620 Кбит/сек
Ширина : 640 пикселей
Высота : 480 пикселей
Соотношение сторон : 4:3
Частота кадров : 25,000 кадров/сек
Цветовое пространство : YUV
Субдискретизация насыщенности : 4:2:0
Битовая глубина : 8 бит
Тип развёртки : Прогрессивная
Метод сжатия : С потерями
Бит/(Пиксели*Кадры) : 0.081
Размер потока : 214 Мбайт (82%)
Библиотека кодирования : XviD 1.2.1 (UTC 2008-12-04)
Аудио
Идентификатор : 1
Формат : MPEG Audio
Версия формата : Version 1
Профиль формата : Layer 3
Идентификатор кодека : 55
Идентификатор кодека/Подсказка : MP3
Продолжительность : 48 м.
Продолжительность оригинала : 48 м.
Вид битрейта : Постоянный
Битрейт : 128 Кбит/сек
Каналы : 2 канала
Частота : 44,1 КГц
Метод сжатия : С потерями
Размер потока : 44,3 Мбайт (17%)
Выравнивание : Разделение по промежуткам
Продолжительность промежутка : 26 мс. (0,65 видеокадр)
Библиотека кодирования : LAME3.98.2ЄЄЄЄЄЄЄЄЄЄ
Скриншоты