Беседа отца Виктора Кузнецова ''Почему нас учат инородцы и иноверцы?'' (09.02.15) (Студия православных фильмов во имя Апостола и Евангелиста Иоанна Богослова)

Беседа отца Виктора Кузнецова ''Почему нас учат инородцы и иноверцы?'' (09.02.15) (Студия православных фильмов во имя Апостола и Евангелиста Иоанна Богослова)
Название:
Беседа отца Виктора Кузнецова ''Почему нас учат инородцы и иноверцы?'' (09.02.15) (Студия православных фильмов во имя Апостола и Евангелиста Иоанна Богослова)
Размер:
291.8 MB
34
Скачать
Беседа отца Виктора Кузнецова ''Почему нас учат инородцы и иноверцы?''
Дата/Год выпуска: 09.02.2015
Страна: Россия
Жанр: Православные беседы
Продолжительность: 00:54:23
Перевод: Не требуется
Русские субтитры: нет
Оригинальная аудиодорожка: русский
Режиссер: Студия православных фильмов во имя Апостола и Евангелиста Иоанна Богослова
Описание: Отец Виктор Кузнецов объясняет духовные причины засилья антиправославных и антирусских сил в современном российском государстве и обществе.
Сэмпл: https://www.sendspace.com/file/9z77ga
Качество: WebRip
формат: AVI
Видео: 610 Кбит/сек, 512*384 (4:3), 25,000 кадров/сек, XviD
Аудио: Русский, 128 Кбит/сек, 44,1 КГц, 2 канала, MP3
MediaInfo
Общее
Полное имя : F:\MONAR.RU\Видео\Познавательные фильмы\Беседа отца Виктора Кузнецова ''Почему нас учат инородцы и иноверцы''.avi
Формат : AVI
Формат/Информация : Audio Video Interleave
Размер файла : 292 Мбайт
Продолжительность : 54 м.
Общий поток : 750 Кбит/сек
Видео
Идентификатор : 0
Формат : MPEG-4 Visual
Профиль формата : Advanced Simple@L5
Параметр BVOP формата : 2
Параметр QPel формата : Нет
Параметр GMC формата : Без точки перехода
Параметр матрицы формата : Выборочная
Идентификатор кодека : XVID
Идентификатор кодека/Подсказка : XviD
Продолжительность : 54 м.
Битрейт : 610 Кбит/сек
Ширина : 512 пикселей
Высота : 384 пикселя
Соотношение сторон : 4:3
Частота кадров : 25,000 кадров/сек
Цветовое пространство : YUV
Субдискретизация насыщенности : 4:2:0
Битовая глубина : 8 бит
Тип развёртки : Прогрессивная
Метод сжатия : С потерями
Бит/(Пиксели*Кадры) : 0.124
Размер потока : 237 Мбайт (81%)
Библиотека кодирования : XviD 1.2.1 (UTC 2008-12-04)
Аудио
Идентификатор : 1
Формат : MPEG Audio
Версия формата : Version 1
Профиль формата : Layer 3
Идентификатор кодека : 55
Идентификатор кодека/Подсказка : MP3
Продолжительность : 54 м.
Продолжительность оригинала : 54 м.
Вид битрейта : Постоянный
Битрейт : 128 Кбит/сек
Каналы : 2 канала
Частота : 44,1 КГц
Метод сжатия : С потерями
Размер потока : 49,8 Мбайт (17%)
Выравнивание : Разделение по промежуткам
Продолжительность промежутка : 26 мс. (0,65 видеокадр)
Библиотека кодирования : LAME3.98.2UUUUUUUЈ@
Скриншоты