Апостол трезвости (Елена Орлова)

Апостол трезвости (Елена Орлова)
Название:
Апостол трезвости (Елена Орлова)
Размер:
1.23 GB
29
Скачать
Апостол трезвости
Год выпуска: 2014
Страна: Россия
Жанр: Православно-познавательный
Продолжительность: 01:09:58
Перевод: Не требуется
Русские субтитры: нет
Оригинальная аудиодорожка: русский
Режиссер: Е. Орлова
Описание: Фильм посвящен Иоанну Алексеевичу Чурикову (братцу Иоанну Самарскому), православному мирянину, основателю движения народных трезвенников в Санкт-Петербурге в конце XIX века. Словами Священного Писания, молитвой, даром прозорливости и чудотворения он избавлял тысячи людей от пьянства и многих других пороков и болезней. И сегодня продолжается дело братца Иоанна Чурикова. Он молился так: "Господи, отрезви всех нас! Дай нам жизнь чистую, трезвую, православную...".
Доп. информация: Рип сделан с этого исходника: http://rutracker.org/forum/viewtopic.php?t=4947179
Сэмпл: https://www.sendspace.com/file/s2avu3
Качество: DVDRip
Формат: AVI
Видео: 2384 Кбит/сек, 720*544 (4:3), 25,000 кадров/сек, XviD
Аудио: Русский, 128 Кбит/сек, 48,0 КГц, 2 канала, MP3
MediaInfo
Общее
Полное имя : F:\MONAR.RU\Видео\Познавательные фильмы\Апостол трезвости.avi
Формат : AVI
Формат/Информация : Audio Video Interleave
Размер файла : 1,23 Гбайт
Продолжительность : 1 ч. 9 м.
Общий поток : 2526 Кбит/сек
Видео
Идентификатор : 0
Формат : MPEG-4 Visual
Профиль формата : Advanced Simple@L5
Параметр BVOP формата : 2
Параметр QPel формата : Нет
Параметр GMC формата : Без точки перехода
Параметр матрицы формата : Выборочная
Идентификатор кодека : XVID
Идентификатор кодека/Подсказка : XviD
Продолжительность : 1 ч. 9 м.
Битрейт : 2384 Кбит/сек
Ширина : 720 пикселей
Высота : 544 пикселя
Соотношение сторон : 4:3
Частота кадров : 25,000 кадров/сек
Цветовое пространство : YUV
Субдискретизация насыщенности : 4:2:0
Битовая глубина : 8 бит
Тип развёртки : Прогрессивная
Метод сжатия : С потерями
Бит/(Пиксели*Кадры) : 0.244
Размер потока : 1,17 Гбайт (94%)
Библиотека кодирования : XviD 1.2.1 (UTC 2008-12-04)
Аудио
Идентификатор : 1
Формат : MPEG Audio
Версия формата : Version 1
Профиль формата : Layer 3
Идентификатор кодека : 55
Идентификатор кодека/Подсказка : MP3
Продолжительность : 1 ч. 9 м.
Продолжительность оригинала : 1 ч. 9 м.
Вид битрейта : Постоянный
Битрейт : 128 Кбит/сек
Каналы : 2 канала
Частота : 48,0 КГц
Метод сжатия : С потерями
Размер потока : 64,1 Мбайт (5%)
Выравнивание : Разделение по промежуткам
Продолжительность промежутка : 24 мс. (0,60 видеокадр)
Библиотека кодирования : LAMEU@fw€oцЪИUу«¤Ъ
Скриншоты