Актуальные вопросы сохранения суверенитета России - геополитический и внутриполитический аспекты. Итоги года и перспективы (19.12.13) (Студия прав.фильмов во имя Апостола и Евангелиста Иоанна Богослова) :

Актуальные вопросы сохранения суверенитета России - геополитический и внутриполитический аспекты. Итоги года и перспективы (19.12.13) (Студия прав.фильмов во имя Апостола и Евангелиста Иоанна Богослова)  :
Название:
Актуальные вопросы сохранения суверенитета России - геополитический и внутриполитический аспекты. Итоги года и перспективы (19.12.13) (Студия прав.фильмов во имя Апостола и Евангелиста Иоанна Богослова) :
Размер:
448.2 MB
32
Скачать
Актуальные вопросы сохранения суверенитета России - геополитический и внутриполитический аспекты. Итоги года и перспективы
Дата/Год выпуска: 19.12.2013
Страна: Россия
Жанр: Православно-познавательный
Продолжительность: 01:30:52
Перевод: Не требуется
Русские субтитры: нет
Оригинальная аудиодорожка: русский
Режиссер: Студия православных фильмов во имя Апостола и Евангелиста Иоанна Богослова
Описание: 19 декабря в Москве, в Международном фонде славянской письменности и культуры, в рамках Постоянно действующего круглого стола в защиту семьи, детства и духовно-нравственных ценностей состоялось заседание на тему: «Актуальные вопросы сохранения суверенитета России: геополитический и внутриполитический аспекты. Итоги года и перспективы», сообщает пресс-служба движения «Семья, любовь, Отечество».
В его работе приняли участие сопредседатель общероссийского общественного движения «Народный собор» О.Ю. Кассин, вице-президент Академии геополитических исследований К.Н. Соколов, публицист, журналист В.Г. Савичев, координатор Постоянно действующего совещания патриотических сил России (ПДС НПСР) В.И. Филин, президент федерации боевого самбо православных граждан В.С. Сергеев и др. Вела заседание председатель Межрегионального общественного движения «Семья, любовь, Отечество» Л.А. Рябиченко. Подводя итоги года, Л.А. Рябиченко рассказала о ювенальном реванше, о новых антисемейных и антиродительских законах, которые в течение нескольких последних месяцев были предложены для обсуждения и принятия, о непрекращающейся угрозе содомизации общества, об опасности уничтожения нравственного суверенитета России.
К.Н. Соколов рассказал о последствиях вступления России в ВТО, о ситуации с развитием науки, в частности, с реформированием Академии наук, о последних событиях в сфере культуры, в том числе, связанных с фильмом «Сталинград», о ситуации в сфере международной безопасности, в частности, в Сирии.
В.Г. Савичев рассказал о мировых тенденциях растления, насаждаемого в обществе, об уничтожении ценностей, о глобализации общества.
В.И. Филин подчеркнул, что вступление России в ВТО подорвало национальный суверенитет, поскольку может отменить существующее национальное законодательство, рассказал о проблемах в стране с трудовой миграцией, с коррупцией.
В.С. Сергеев обратил внимание собравшихся на проблемы этнической преступности, рассказал о поиске путей патриотического воспитания молодёжи, об объединении усилий православных педагогов и спортсменов для переориентирования молодёжи на истинные ценности и идеалы в противовес царящей бездуховности.
О.Ю. Кассин подчеркнул, что в условиях непрекращающейся экспансии содомизации в мире, возрастает необходимость активной защиты общества от этой смертельной угрозы, раскрыл ситуацию с противостоянием пропаганде извращений в сфере законодательства.
Сэмпл: https://www.sendspace.com/file/j0zoh6
Качество: WebRip
формат: AVI
Видео: 549 Кбит/сек, 640*480 (4:3), 25,000 кадров/сек, DivX 4
Аудио: Русский, 128 Кбит/сек, 44,1 КГц, 2 канала, MP3
MediaInfo
Общее
Полное имя : L:\Monar.ru\Видео\Документальные фильмы\Познавательные фильмы\Актуальные вопросы сохранения суверенитета России - геополитический и внутриполитический аспекты. Итоги года и перспективы.avi
Формат : AVI
Формат/Информация : Audio Video Interleave
Размер файла : 448 Мбайт
Продолжительность : 1 ч. 30 м.
Общий поток : 689 Кбит/сек
Видео
Идентификатор : 0
Формат : MPEG-4 Visual
Профиль формата : Advanced Simple@L4
Параметр BVOP формата : 2
Параметр QPel формата : Нет
Параметр GMC формата : Без точки перехода
Параметр матрицы формата : Default (MPEG)
Идентификатор кодека : DIVX
Идентификатор кодека/Информация : Project Mayo
Идентификатор кодека/Подсказка : DivX 4
Продолжительность : 1 ч. 30 м.
Битрейт : 549 Кбит/сек
Ширина : 640 пикселей
Высота : 480 пикселей
Соотношение сторон : 4:3
Частота кадров : 25,000 кадров/сек
Цветовое пространство : YUV
Субдискретизация насыщенности : 4:2:0
Битовая глубина : 8 бит
Тип развёртки : Прогрессивная
Метод сжатия : С потерями
Бит/(Пиксели*Кадры) : 0.072
Размер потока : 357 Мбайт (80%)
Библиотека кодирования : XviD 64
Аудио
Идентификатор : 1
Формат : MPEG Audio
Версия формата : Version 1
Профиль формата : Layer 3
Идентификатор кодека : 55
Идентификатор кодека/Подсказка : MP3
Продолжительность оригинала : 1 ч. 30 м.
Вид битрейта : Постоянный
Битрейт : 128 Кбит/сек
Каналы : 2 канала
Частота : 44,1 КГц
Метод сжатия : С потерями
Размер потока : 83,2 Мбайт (19%)
Выравнивание : Соединение по промежуткам
Продолжительность промежутка : 26 мс. (0,65 видеокадр)
Скриншоты