Единство истории (Телеканал "Спас")

Единство истории (Телеканал "Спас")
Название:
Единство истории (Телеканал "Спас")
Размер:
617 MB
23
Скачать
Единство истории
Дата/Год выпуска: 02.06.2014
Страна: Россия
Жанр: Православные беседы
Продолжительность: 00:56:33
Перевод: Не требуется
Русские субтитры: нет
Оригинальная аудиодорожка: русский
Режиссер: Телеканал "Спас"
Телеканал: Спас
Описание: Тема: «Штрафники: в жизни и на экране. Православный взгляд». Гости - Юрий Рубцов, доктор исторических наук и Александр Семенюк, киновед, режиссер.
Тема: «Николай Второй и Первая Мировая». Гости - историки Валерий Шамбаров и Петр Мультатули.
Ведущий - Борис Костенко.
Сэмпл: https://www.sendspace.com/file/u5m73q
Качество: SATRip
Формат: AVI
Видео: 629 Кбит/сек, 608*320 (1,900), 25,000 кадров/сек, XviD
Аудио: Русский, 128 Кбит/сек, 44,1 КГц, 2 канала, MP3
Отчёты и скриншоты
02.06.14 Штрафники в жизни и на экране
MediaInfo
Общее
Полное имя : F:\MONAR.RU\Видео\Познавательные фильмы\Единство истории\02.06.14 Штрафники в жизни и на экране.avi
Формат : AVI
Формат/Информация : Audio Video Interleave
Размер файла : 311 Мбайт
Продолжительность : 56 м.
Общий поток : 770 Кбит/сек
Видео
Идентификатор : 0
Формат : MPEG-4 Visual
Профиль формата : Advanced Simple@L5
Параметр BVOP формата : 2
Параметр QPel формата : Нет
Параметр GMC формата : Без точки перехода
Параметр матрицы формата : Выборочная
Идентификатор кодека : XVID
Идентификатор кодека/Подсказка : XviD
Продолжительность : 56 м.
Битрейт : 629 Кбит/сек
Ширина : 608 пикселей
Высота : 320 пикселей
Соотношение сторон : 1,900
Частота кадров : 25,000 кадров/сек
Цветовое пространство : YUV
Субдискретизация насыщенности : 4:2:0
Битовая глубина : 8 бит
Тип развёртки : Прогрессивная
Метод сжатия : С потерями
Бит/(Пиксели*Кадры) : 0.129
Размер потока : 255 Мбайт (82%)
Библиотека кодирования : XviD 1.2.1 (UTC 2008-12-04)
Аудио
Идентификатор : 1
Формат : MPEG Audio
Версия формата : Version 1
Профиль формата : Layer 3
Идентификатор кодека : 55
Идентификатор кодека/Подсказка : MP3
Продолжительность : 56 м.
Продолжительность оригинала : 56 м.
Вид битрейта : Постоянный
Битрейт : 128 Кбит/сек
Каналы : 2 канала
Частота : 44,1 КГц
Метод сжатия : С потерями
Размер потока : 51,8 Мбайт (17%)
Выравнивание : Разделение по промежуткам
Продолжительность промежутка : 26 мс. (0,65 видеокадр)
26.05.14 Николай Второй и Первая Мировая
MediaInfo
Общее
Полное имя : F:\MONAR.RU\Видео\Познавательные фильмы\Единство истории\26.05.14 Николай Второй и Первая Мировая.avi
Формат : MPEG-4
Профиль формата : Base Media
Идентификатор кодека : isom
Размер файла : 306 Мбайт
Продолжительность : 56 м.
Общий поток : 762 Кбит/сек
Название фильма : 26.05.14 Николай Второй и Первая Мировая.avi
Исполнитель : Avidemux
Композитор : Avidemux
Дата кодирования : UTC 1970-01-01 00:00:00
Дата пометки : UTC 1970-01-01 00:00:00
Программа кодирования : Lavf51.12.1
Видео
Идентификатор : 1
Формат : MPEG-4 Visual
Профиль формата : Advanced Simple@L5
Параметр BVOP формата : Да
Параметр QPel формата : Нет
Параметр GMC формата : Без точки перехода
Параметр матрицы формата : Выборочная
Идентификатор кодека : 20
Продолжительность : 56 м.
Битрейт : 629 Кбит/сек
Ширина : 608 пикселей
Высота : 320 пикселей
Соотношение сторон : 1,900
Режим частоты кадров : Постоянный
Частота кадров : 25,000 кадров/сек
Цветовое пространство : YUV
Субдискретизация насыщенности : 4:2:0
Битовая глубина : 8 бит
Тип развёртки : Прогрессивная
Метод сжатия : С потерями
Бит/(Пиксели*Кадры) : 0.129
Размер потока : 252 Мбайт (83%)
Библиотека кодирования : XviD 1.2.1 (UTC 2008-12-04)
Дата кодирования : UTC 1970-01-01 00:00:00
Дата пометки : UTC 1970-01-01 00:00:00
Аудио
Идентификатор : 2
Формат : MPEG Audio
Версия формата : Version 1
Профиль формата : Layer 3
Идентификатор кодека : 6B
Продолжительность : 56 м.
Вид битрейта : Постоянный
Битрейт : 128 Кбит/сек
Каналы : 2 канала
Частота : 44,1 КГц
Метод сжатия : С потерями
Размер потока : 51,3 Мбайт (17%)
Дата кодирования : UTC 1970-01-01 00:00:00
Дата пометки : UTC 1970-01-01 00:00:00
31.03.15 Торрент-файл перезалит. Добавлен выпуск "26.05.14 Николай Второй и Первая Мировая".