Поездка в Почаев (Сергей Андрюшкин)

Поездка в Почаев (Сергей Андрюшкин)
Название:
Поездка в Почаев (Сергей Андрюшкин)
Размер:
2.15 GB
36
Скачать
Поездка в Почаев
Год выпуска: 2014
Страна: Россия
Жанр: Православные святыни
Продолжительность: 00:42:46
Перевод: Не требуется
Русские субтитры: нет
Оригинальная аудиодорожка: русский
Режиссер: С. Андрюшкин
Описание: В этом фильме мы посетим легендарный Почаев. Здесь находится один из известнейших православных монастырей - Свято - Успенская Почаевская Лавра, куда ежегодно стекаются тысячи православных паломников.
Доп. информация: Медиа-проект "Толк и польза" осуществляется при содействии архиепископа Егорьевского Марка.
Сэмпл: https://www.sendspace.com/file/odb02y
Качество: DVD5
Формат: DVD Video
Видео: 5011 Кбит/сек, PAL 720*576 (16:9), в 25,000 кадров/сек, MPEG2
Аудио: Русский, 1536 Кбит/сек, 48,0 КГц, 2 канала, PCM
DVDInfo
Title: Поездка в Почаев
Size: 2.15 Gb ( 2 251 294 KBytes ) - DVD-5
Enabled regions: 1, 2, 3, 4, 5, 6, 7, 8
VTS_01 :
Play Length: 00:00:30
Video: PAL 4:3 (720x576) VBR
Audio:
Not specified (LinearPCM, 2 ch)
VTS_02 :
Play Length: 00:42:46
Video: PAL 16:9 (720x576) VBR, Auto Pan&Scan
Audio:
Not specified (LinearPCM, 2 ch)
Menu Video:
PAL 4:3 (720x576) VBR
Menu Audio:
Not specified (LinearPCM, 2 ch)
Menu Subtitles:
Not specified
Menu Language Unit :
Root Menu
MediaInfo
Общее
Полное имя : F:\MONAR.RU\Видео\Святыни Вселенского Православия\Поездка в Почаев\VIDEO_TS\VIDEO_TS.BUP
Формат : DVD Video
Профиль формата : Menu
Размер файла : 108 Кбайт
Режим общего битрейта : Переменный
Видео
Идентификатор : 224 (0xE0)
Формат : MPEG Video
Версия формата : Version 2
Вид битрейта : Переменный
Ширина : 720 пикселей
Высота : 576 пикселей
Соотношение сторон : 4:3
Частота кадров : 25,000 кадров/сек
Стандарт вещания : PAL
Метод сжатия : С потерями
Аудио
Формат : PCM
Каналы : 2 канала
Частота : 48,0 КГц
Текст
Формат : RLE
Формат/Информация : Run-length encoding
Битовая глубина : 2 бит
Общее
Полное имя : F:\MONAR.RU\Видео\Святыни Вселенского Православия\Поездка в Почаев\VIDEO_TS\VIDEO_TS.IFO
Формат : DVD Video
Профиль формата : Menu
Размер файла : 108 Кбайт
Режим общего битрейта : Переменный
Видео
Идентификатор : 224 (0xE0)
Формат : MPEG Video
Версия формата : Version 2
Вид битрейта : Переменный
Ширина : 720 пикселей
Высота : 576 пикселей
Соотношение сторон : 4:3
Частота кадров : 25,000 кадров/сек
Стандарт вещания : PAL
Метод сжатия : С потерями
Аудио
Формат : PCM
Каналы : 2 канала
Частота : 48,0 КГц
Текст
Формат : RLE
Формат/Информация : Run-length encoding
Битовая глубина : 2 бит
Общее
Полное имя : F:\MONAR.RU\Видео\Святыни Вселенского Православия\Поездка в Почаев\VIDEO_TS\VIDEO_TS.VOB
Формат : MPEG-PS
Размер файла : 110 Мбайт
Продолжительность : 2 м. 39 с.
Режим общего битрейта : Переменный
Общий поток : 5774 Кбит/сек
Видео
Идентификатор : 224 (0xE0)
Формат : MPEG Video
Версия формата : Version 2
Профиль формата : Main@Main
Параметр BVOP формата : Нет
Параметр матрицы формата : По умолчанию
Параметр GOP формата : N=1
Продолжительность : 40 мс.
Вид битрейта : Переменный
Битрейт : 4123 Кбит/сек
Максимальный битрейт : 8000 Кбит/сек
Ширина : 720 пикселей
Высота : 576 пикселей
Соотношение сторон : 4:3
Частота кадров : 25,000 кадров/сек
Стандарт вещания : PAL
Цветовое пространство : YUV
Субдискретизация насыщенности : 4:2:0
Битовая глубина : 8 бит
Тип развёртки : Прогрессивная
Порядок развёртки : Верхнее поле первое
Метод сжатия : С потерями
Бит/(Пиксели*Кадры) : 0.398
Временной код первого кадра : 00:00:00:00
Оригинал временного кода : Group of pictures header
Размер потока : 20,1 Кбайт (0%)
Основные цвета : BT.601 PAL
Характеристики трансфера : BT.470 System B, BT.470 System G
Коэффициенты матрицы : BT.601
Аудио
Идентификатор : 189 (0xBD)-160 (0xA0)
Формат : PCM
Параметр Endianness формата : Big
Параметр Sign формата : Signed
Режим смешивания : DVD-Video
Продолжительность : 2 м. 39 с.
Вид битрейта : Постоянный
Битрейт : 1536 Кбит/сек
Каналы : 2 канала
Частота : 48,0 КГц
Битовая глубина : 16 бит
Размер потока : 29,3 Мбайт (27%)
Текст
Идентификатор : 189 (0xBD)-32 (0x20)
Формат : RLE
Формат/Информация : Run-length encoding
Режим смешивания : DVD-Video
Меню
Общее
Полное имя : F:\MONAR.RU\Видео\Святыни Вселенского Православия\Поездка в Почаев\VIDEO_TS\VTS_01_0.BUP
Формат : DVD Video
Профиль формата : Program
Размер файла : 20,0 Кбайт
Продолжительность : 30 с.
Режим общего битрейта : Переменный
Общий поток : 5447 бит/сек
Видео
Идентификатор : 224 (0xE0)
Формат : MPEG Video
Версия формата : Version 2
Продолжительность : 30 с.
Вид битрейта : Переменный
Ширина : 720 пикселей
Высота : 576 пикселей
Соотношение сторон : 4:3
Частота кадров : 25,000 кадров/сек
Стандарт вещания : PAL
Метод сжатия : С потерями
Аудио
Идентификатор : 0 (0x0)
Формат : PCM
Продолжительность : 30 с.
Каналы : 2 канала
Частота : 48,0 КГц
Меню #1
Продолжительность : 30 с.
00:00:00.000 : Chapter 1
List (Audio) : 0
Меню #2
Продолжительность : 30 с.
00:00:00.000 : Chapter 1
List (Audio) : 0
Меню #3
Общее
Полное имя : F:\MONAR.RU\Видео\Святыни Вселенского Православия\Поездка в Почаев\VIDEO_TS\VTS_01_0.IFO
Формат : DVD Video
Профиль формата : Program
Размер файла : 20,0 Кбайт
Продолжительность : 30 с.
Режим общего битрейта : Переменный
Общий поток : 5447 бит/сек
Видео
Идентификатор : 224 (0xE0)
Формат : MPEG Video
Версия формата : Version 2
Продолжительность : 30 с.
Вид битрейта : Переменный
Ширина : 720 пикселей
Высота : 576 пикселей
Соотношение сторон : 4:3
Частота кадров : 25,000 кадров/сек
Стандарт вещания : PAL
Метод сжатия : С потерями
Аудио
Идентификатор : 0 (0x0)
Формат : PCM
Продолжительность : 30 с.
Каналы : 2 канала
Частота : 48,0 КГц
Меню #1
Продолжительность : 30 с.
00:00:00.000 : Chapter 1
List (Audio) : 0
Меню #2
Продолжительность : 30 с.
00:00:00.000 : Chapter 1
List (Audio) : 0
Меню #3
Общее
Полное имя : F:\MONAR.RU\Видео\Святыни Вселенского Православия\Поездка в Почаев\VIDEO_TS\VTS_01_1.VOB
Формат : MPEG-PS
Размер файла : 48,4 Мбайт
Продолжительность : 30 с.
Режим общего битрейта : Переменный
Общий поток : 13,5 Мбит/сек
Видео
Идентификатор : 224 (0xE0)
Формат : MPEG Video
Версия формата : Version 2
Профиль формата : Main@Main
Параметр BVOP формата : Да
Параметр матрицы формата : По умолчанию
Параметр GOP формата : M=3, N=12
Продолжительность : 30 с.
Вид битрейта : Переменный
Битрейт : 11,7 Мбит/сек
Максимальный битрейт : 6000 Кбит/сек
Ширина : 720 пикселей
Высота : 576 пикселей
Соотношение сторон : 4:3
Частота кадров : 25,000 кадров/сек
Стандарт вещания : PAL
Цветовое пространство : YUV
Субдискретизация насыщенности : 4:2:0
Битовая глубина : 8 бит
Тип развёртки : Прогрессивная
Метод сжатия : С потерями
Бит/(Пиксели*Кадры) : 1.131
Временной код первого кадра : 00:00:00:00
Оригинал временного кода : Group of pictures header
Размер потока : 42,0 Мбайт (87%)
Основные цвета : BT.601 PAL
Характеристики трансфера : BT.470 System B, BT.470 System G
Коэффициенты матрицы : BT.601
Gop_OpenClosed_FirstFrame : Closed
Аудио
Идентификатор : 189 (0xBD)-160 (0xA0)
Формат : PCM
Параметр Endianness формата : Big
Параметр Sign формата : Signed
Режим смешивания : DVD-Video
Продолжительность : 29 с.
Вид битрейта : Постоянный
Битрейт : 1536 Кбит/сек
Каналы : 2 канала
Частота : 48,0 КГц
Битовая глубина : 16 бит
Размер потока : 5,49 Мбайт (11%)
Меню
Общее
Полное имя : F:\MONAR.RU\Видео\Святыни Вселенского Православия\Поездка в Почаев\VIDEO_TS\VTS_02_0.BUP
Формат : DVD Video
Профиль формата : Program
Размер файла : 42,0 Кбайт
Продолжительность : 42 м.
Режим общего битрейта : Переменный
Общий поток : 134 бит/сек
Видео
Идентификатор : 224 (0xE0)
Формат : MPEG Video
Версия формата : Version 2
Продолжительность : 42 м.
Вид битрейта : Переменный
Ширина : 720 пикселей
Высота : 576 пикселей
Соотношение сторон : 16:9
Частота кадров : 25,000 кадров/сек
Стандарт вещания : PAL
Метод сжатия : С потерями
Аудио
Идентификатор : 0 (0x0)
Формат : PCM
Продолжительность : 42 м.
Каналы : 2 канала
Частота : 48,0 КГц
Меню
Продолжительность : 42 м.
00:00:00.000 : Chapter 1
00:02:10.080 : Chapter 2
00:16:20.640 : Chapter 3
00:18:28.800 : Chapter 4
00:20:23.520 : Chapter 5
00:21:31.680 : Chapter 6
00:27:48.480 : Chapter 7
00:37:36.000 : Chapter 8
List (Audio) : 0
Общее
Полное имя : F:\MONAR.RU\Видео\Святыни Вселенского Православия\Поездка в Почаев\VIDEO_TS\VTS_02_0.IFO
Формат : DVD Video
Профиль формата : Program
Размер файла : 42,0 Кбайт
Продолжительность : 42 м.
Режим общего битрейта : Переменный
Общий поток : 134 бит/сек
Видео
Идентификатор : 224 (0xE0)
Формат : MPEG Video
Версия формата : Version 2
Продолжительность : 42 м.
Вид битрейта : Переменный
Ширина : 720 пикселей
Высота : 576 пикселей
Соотношение сторон : 16:9
Частота кадров : 25,000 кадров/сек
Стандарт вещания : PAL
Метод сжатия : С потерями
Аудио
Идентификатор : 0 (0x0)
Формат : PCM
Продолжительность : 42 м.
Каналы : 2 канала
Частота : 48,0 КГц
Меню
Продолжительность : 42 м.
00:00:00.000 : Chapter 1
00:02:10.080 : Chapter 2
00:16:20.640 : Chapter 3
00:18:28.800 : Chapter 4
00:20:23.520 : Chapter 5
00:21:31.680 : Chapter 6
00:27:48.480 : Chapter 7
00:37:36.000 : Chapter 8
List (Audio) : 0
Общее
Полное имя : F:\MONAR.RU\Видео\Святыни Вселенского Православия\Поездка в Почаев\VIDEO_TS\VTS_02_1.VOB
Формат : MPEG-PS
Размер файла : 977 Мбайт
Продолжительность : 20 м.
Режим общего битрейта : Переменный
Общий поток : 6680 Кбит/сек
Видео
Идентификатор : 224 (0xE0)
Формат : MPEG Video
Версия формата : Version 2
Профиль формата : Main@Main
Параметр BVOP формата : Да
Параметр матрицы формата : По умолчанию
Параметр GOP формата : M=3, N=12
Продолжительность : 20 м.
Вид битрейта : Переменный
Битрейт : 5011 Кбит/сек
Максимальный битрейт : 7000 Кбит/сек
Ширина : 720 пикселей
Высота : 576 пикселей
Соотношение сторон : 16:9
Частота кадров : 25,000 кадров/сек
Стандарт вещания : PAL
Цветовое пространство : YUV
Субдискретизация насыщенности : 4:2:0
Битовая глубина : 8 бит
Тип развёртки : Прогрессивная
Метод сжатия : С потерями
Бит/(Пиксели*Кадры) : 0.483
Временной код первого кадра : 00:00:00:00
Оригинал временного кода : Group of pictures header
Размер потока : 733 Мбайт (75%)
Аудио
Идентификатор : 189 (0xBD)-160 (0xA0)
Формат : PCM
Параметр Endianness формата : Big
Параметр Sign формата : Signed
Режим смешивания : DVD-Video
Продолжительность : 20 м.
Вид битрейта : Постоянный
Битрейт : 1536 Кбит/сек
Каналы : 2 канала
Частота : 48,0 КГц
Битовая глубина : 16 бит
Задержка видео : 90 мс.
Размер потока : 225 Мбайт (23%)
Меню
Общее
Полное имя : F:\MONAR.RU\Видео\Святыни Вселенского Православия\Поездка в Почаев\VIDEO_TS\VTS_02_2.VOB
Формат : MPEG-PS
Размер файла : 977 Мбайт
Продолжительность : 20 м.
Режим общего битрейта : Переменный
Общий поток : 6675 Кбит/сек
Видео
Идентификатор : 224 (0xE0)
Формат : MPEG Video
Версия формата : Version 2
Профиль формата : Main@Main
Параметр BVOP формата : Да
Параметр матрицы формата : По умолчанию
Параметр GOP формата : M=3, N=12
Продолжительность : 20 м.
Вид битрейта : Переменный
Битрейт : 5007 Кбит/сек
Максимальный битрейт : 7000 Кбит/сек
Ширина : 720 пикселей
Высота : 576 пикселей
Соотношение сторон : 16:9
Частота кадров : 25,000 кадров/сек
Стандарт вещания : PAL
Цветовое пространство : YUV
Субдискретизация насыщенности : 4:2:0
Битовая глубина : 8 бит
Тип развёртки : Прогрессивная
Метод сжатия : С потерями
Бит/(Пиксели*Кадры) : 0.483
Временной код первого кадра : 00:20:26:10
Оригинал временного кода : Group of pictures header
Размер потока : 733 Мбайт (75%)
Аудио
Идентификатор : 189 (0xBD)-160 (0xA0)
Формат : PCM
Параметр Endianness формата : Big
Параметр Sign формата : Signed
Режим смешивания : DVD-Video
Продолжительность : 20 м.
Вид битрейта : Постоянный
Битрейт : 1536 Кбит/сек
Каналы : 2 канала
Частота : 48,0 КГц
Битовая глубина : 16 бит
Задержка видео : -216 мс.
Размер потока : 225 Мбайт (23%)
Меню
Общее
Полное имя : F:\MONAR.RU\Видео\Святыни Вселенского Православия\Поездка в Почаев\VIDEO_TS\VTS_02_3.VOB
Формат : MPEG-PS
Размер файла : 86,3 Мбайт
Продолжительность : 1 м. 53 с.
Режим общего битрейта : Переменный
Общий поток : 6405 Кбит/сек
Видео
Идентификатор : 224 (0xE0)
Формат : MPEG Video
Версия формата : Version 2
Профиль формата : Main@Main
Параметр BVOP формата : Да
Параметр матрицы формата : По умолчанию
Параметр GOP формата : M=3, N=12
Продолжительность : 1 м. 52 с.
Вид битрейта : Переменный
Битрейт : 4741 Кбит/сек
Максимальный битрейт : 7000 Кбит/сек
Ширина : 720 пикселей
Высота : 576 пикселей
Соотношение сторон : 16:9
Частота кадров : 25,000 кадров/сек
Стандарт вещания : PAL
Цветовое пространство : YUV
Субдискретизация насыщенности : 4:2:0
Битовая глубина : 8 бит
Тип развёртки : Прогрессивная
Метод сжатия : С потерями
Бит/(Пиксели*Кадры) : 0.457
Временной код первого кадра : 00:40:53:19
Оригинал временного кода : Group of pictures header
Размер потока : 63,8 Мбайт (74%)
Аудио
Идентификатор : 189 (0xBD)-160 (0xA0)
Формат : PCM
Параметр Endianness формата : Big
Параметр Sign формата : Signed
Режим смешивания : DVD-Video
Продолжительность : 1 м. 53 с.
Вид битрейта : Постоянный
Битрейт : 1536 Кбит/сек
Каналы : 2 канала
Частота : 48,0 КГц
Битовая глубина : 16 бит
Задержка видео : -217 мс.
Размер потока : 20,7 Мбайт (24%)
Меню
Скриншот меню
Скриншоты
Анаморфированные скриншоты
Обложка