В поисках святителя (Татьяна Карпова)

В поисках святителя (Татьяна Карпова)
Название:
В поисках святителя (Татьяна Карпова)
Размер:
403.3 MB
21
Скачать
В поисках святителя
Год выпуска: 2013
Страна: Россия
Жанр: Православные святые
Продолжительность: 00:50:03
Перевод: Не требуется
Русские субтитры: нет
Оригинальная аудиодорожка: русский
Режиссер: Т. Карпова
Описание: Подвиг, о котором рассказывается в фильме, совершил кроткий и благостный митрополит Макарий (Невский), апостол Алтая, проведший там 36 лет своей жизни и обративший ко Христу тысячи местных жителей.
Доп. информация: Рип сделан с этого исходника: http://rutracker.org/forum/viewtopic.php?t=4973360
Сэмпл: https://www.sendspace.com/file/bjmw95
Качество: DVDRip
Формат: AVI
Видео: 985 Кбит/сек, 720*400 (16:9), 25,000 кадров/сек, XviD
Аудио: Русский, 128 Кбит/сек, 48,0 КГц, 2 канала, MP3
MediaInfo
Общее
Полное имя : F:\MONAR.RU\Видео\Святые Вселенского Православия\В поисках святителя.avi
Формат : AVI
Формат/Информация : Audio Video Interleave
Размер файла : 403 Мбайт
Продолжительность : 50 м.
Общий поток : 1126 Кбит/сек
Видео
Идентификатор : 0
Формат : MPEG-4 Visual
Профиль формата : Advanced Simple@L5
Параметр BVOP формата : 2
Параметр QPel формата : Нет
Параметр GMC формата : Без точки перехода
Параметр матрицы формата : Выборочная
Идентификатор кодека : XVID
Идентификатор кодека/Подсказка : XviD
Продолжительность : 50 м.
Битрейт : 985 Кбит/сек
Ширина : 720 пикселей
Высота : 400 пикселей
Соотношение сторон : 16:9
Частота кадров : 25,000 кадров/сек
Цветовое пространство : YUV
Субдискретизация насыщенности : 4:2:0
Битовая глубина : 8 бит
Тип развёртки : Прогрессивная
Метод сжатия : С потерями
Бит/(Пиксели*Кадры) : 0.137
Размер потока : 353 Мбайт (87%)
Библиотека кодирования : XviD 1.2.1 (UTC 2008-12-04)
Аудио
Идентификатор : 1
Формат : MPEG Audio
Версия формата : Version 1
Профиль формата : Layer 3
Идентификатор кодека : 55
Идентификатор кодека/Подсказка : MP3
Продолжительность : 50 м.
Продолжительность оригинала : 50 м.
Вид битрейта : Постоянный
Битрейт : 128 Кбит/сек
Каналы : 2 канала
Частота : 48,0 КГц
Метод сжатия : С потерями
Размер потока : 45,8 Мбайт (11%)
Выравнивание : Разделение по промежуткам
Продолжительность промежутка : 24 мс. (0,60 видеокадр)
Скриншоты