Новые мученики Оптинские (Алексей Денисов, Борис Костенко)

Новые мученики Оптинские (Алексей Денисов, Борис Костенко)
Название:
Новые мученики Оптинские (Алексей Денисов, Борис Костенко)
Размер:
551.1 MB
33
Скачать
Новые мученики Оптинские Год выпуска: 1993
Страна: Россия
Жанр: Православное видео
Продолжительность: 00:37:20
Перевод: Не требуется
Русские субтитры: нет
Режиссер: Алексей Денисов, Борис Костенко
Телеканал: Производство телевизионной студии ИМИ-ТВ
Описание:
Фильм рассказывает о происшедшем убийстве трех оптинских братьев: иеромонаха Василия, инока Ферапонта и инока Трофима на Пасху 1993 года.
Качество: VHSRip
Формат: AVI
Видео: 640x480 (1.33:1), 25 fps, XviD build 50 ~1925 kbps avg, 0.25 bit/pixel
Аудио: 48 kHz, MPEG Layer 3, 2 ch, ~128.00 kbps avg dual mono
MediaInfo
Общее
Формат : AVI
Формат/Информация : Audio Video Interleave
Размер файла : 551 Мбайт
Продолжительность : 37 м.
Общий поток : 2063 Кбит/сек
Название фильма : Новые мученики Оптинские - 1993
Программа кодирования : VirtualDubMod 1.5.10.3 | www.virtualdub-fr.org || (build 2550/release)
Примечание : Rip by DjVu-Master
Видео
Идентификатор : 0
Формат : MPEG-4 Visual
Профиль формата : Advanced Simple@L5
Параметр BVOP формата : 2
Параметр QPel формата : Нет
Параметр GMC формата : Без точки перехода
Параметр матрицы формата : Default (MPEG)
Идентификатор кодека : XVID
Идентификатор кодека/Подсказка : XviD
Продолжительность : 37 м.
Битрейт : 1926 Кбит/сек
Ширина : 640 пикселей
Высота : 480 пикселей
Соотношение сторон : 4:3
Частота кадров : 25,000 кадров/сек
Цветовое пространство : YUV
Субдискретизация насыщенности : 4:2:0
Битовая глубина : 8 бит
Тип развёртки : Прогрессивная
Метод сжатия : С потерями
Бит/(Пиксели*Кадры) : 0.251
Размер потока : 514 Мбайт (93%)
Библиотека кодирования : XviD 1.2.1 (UTC 2008-12-04)
Аудио
Идентификатор : 1
Формат : MPEG Audio
Версия формата : Version 1
Профиль формата : Layer 3
Идентификатор кодека : 55
Идентификатор кодека/Подсказка : MP3
Продолжительность : 37 м.
Вид битрейта : Постоянный
Битрейт : 128 Кбит/сек
Каналы : 2 канала
Частота : 48,0 КГц
Метод сжатия : С потерями
Размер потока : 34,2 Мбайт (6%)
Выравнивание : Соединение по промежуткам
Продолжительность промежутка : 40 мс. (1,00 видеокадр)
Время предзагрузки промежутка : 504 мс.
Библиотека кодирования : LAME3.99r
Настройки программы : -m s -V 4 -q 3 -lowpass 17 -b 128
Скриншоты
Обложки VHS
Доп. информация: Кассету для оцифровки предоставил Виктор Филиченко.