Ювенальная юстиция - угроза семье, обществу, государству (Галина Царёва)

Ювенальная юстиция - угроза семье, обществу, государству (Галина Царёва)
Название:
Ювенальная юстиция - угроза семье, обществу, государству (Галина Царёва)
Размер:
1.23 GB
58
Скачать
Ювенальная юстиция - угроза семье, обществу, государству
Год выпуска: 2009
Страна: Россия
Жанр: Православно-познавательный
Продолжительность: 02:34:24
Перевод: Не требуется
Русские субтитры: нет
Оригинальная аудиодорожка: русский
Режиссер: Г. Царёва
Описание: Главной целью врагов России является разрушение семьи, лишение отцов и матерей их Конституционных прав на воспитание собственных детей в соответствии со своими нравственными и религиозными убеждениями. Сейчас в России пытаются ввести так называемую "ювенальную юстицию" под благовидным предлогом заменить малолетним преступникам тюрьму профилактическими беседами и защитить наших детей от "произвола родителей". На самом деле преследуются иные цели. И мы вскоре получим: обязательное преподавание детям с первого класса "сексуального просвещения" и "основ безопасного секса", "толерантного" отношения к педерастии и однополым бракам. Организацию тотальной системы доносительства детей на собственных родителей и педагогов, фактически отменяющую библейскую заповедь "почитай отца своего и мать". Такое мы уже проходили. Тотальное стукачество, "Павлики Морозовы"- это уже было. Но нам упорно предлагают наступать на те же грабли. "Ювенальные суды", имеют право требовать от родителей не препятствовать растлению своих детей, а если те не согласны, то- изымать детей из семьи, отдавать их в приюты или другие семью, не исключая, зарубежных. Так якобы заботясь о детях эти лукавые доброхоты сделают наших детей сиротами при живых родителях. Отшлёпал ребёнка? Не разрешил смотреть порносайты? Заставил убирать в своей комнате или делать по утрам зарядку? Или карманных денег даешь меньше, чем дают одноклассникам? Уже завтра за все это твоего ребенка смогут отобрать решением "ювенального суда" на совершенно законных основаниях. Только за прошлый год в Германии принудительно изъято из семей более 70 тысяч детей! Из них половина- с формулировкой "недостаточно хорошее материальное положение семьи". Представьте, сколько миллионов детей могут "за бедность" отобрать в Росии! Но и состоятельным родителям обольщаться особо не стоит: нет лучшего способа шантажировать и вымогать деньги, чем угрозой законным образом отобрать у вас ребенка. Задумайтесь: нужен ли нам подобный "передовой западный опыт"?
Доп. информация: Рип сделан с этого исходника: http://rutracker.org/forum/viewtopic.php?t=4958921
Сэмпл: https://www.sendspace.com/file/2es8uq
Качество: DVDRip
Формат: AVI
Видео: 999 Кбит/сек, 720*544 (4:3), 25,000 кадров/сек, XviD
Аудио: Русский, 128 Кбит/сек, 48,0 КГц, 2 канала, MP3
MediaInfo
Общее
Полное имя : K:\Monar.ru\Видео\Документальные фильмы\Познавательные фильмы\Ювенальная юстиция - угроза семье, обществу, государству.avi
Формат : AVI
Формат/Информация : Audio Video Interleave
Размер файла : 1,23 Гбайт
Продолжительность : 2 ч. 34 м.
Общий поток : 1140 Кбит/сек
Видео
Идентификатор : 0
Формат : MPEG-4 Visual
Профиль формата : Advanced Simple@L5
Параметр BVOP формата : 2
Параметр QPel формата : Нет
Параметр GMC формата : Без точки перехода
Параметр матрицы формата : Выборочная
Идентификатор кодека : XVID
Идентификатор кодека/Подсказка : XviD
Продолжительность : 2 ч. 34 м.
Битрейт : 999 Кбит/сек
Ширина : 720 пикселей
Высота : 544 пикселя
Соотношение сторон : 4:3
Частота кадров : 25,000 кадров/сек
Цветовое пространство : YUV
Субдискретизация насыщенности : 4:2:0
Битовая глубина : 8 бит
Тип развёртки : Прогрессивная
Метод сжатия : С потерями
Бит/(Пиксели*Кадры) : 0.102
Размер потока : 1,08 Гбайт (88%)
Библиотека кодирования : XviD 1.2.1 (UTC 2008-12-04)
Аудио
Идентификатор : 1
Формат : MPEG Audio
Версия формата : Version 1
Профиль формата : Layer 3
Идентификатор кодека : 55
Идентификатор кодека/Подсказка : MP3
Продолжительность : 2 ч. 34 м.
Продолжительность оригинала : 2 ч. 34 м.
Вид битрейта : Постоянный
Битрейт : 128 Кбит/сек
Каналы : 2 канала
Частота : 48,0 КГц
Метод сжатия : С потерями
Размер потока : 141 Мбайт (11%)
Выравнивание : Разделение по промежуткам
Продолжительность промежутка : 24 мс. (0,60 видеокадр)
Библиотека кодирования : LAME3.98.2ЄЄЄЄЄЄЄЄЄЄ
Скриншоты