Лечебница духовная (Сергей Ломкин)

Лечебница духовная (Сергей Ломкин)
Название:
Лечебница духовная (Сергей Ломкин)
Размер:
4.13 GB
17
Скачать
Лечебница духовная
Дата/Год выпуска: 2005
Страна: Россия
Жанр: Православие
Продолжительность: ~01:15:00
Перевод: Не требуется
Русские субтитры: нет
Оригинальная аудиодорожка: русский
Режиссер: Сергей Ломкин
Описание:
Этот фильм о Рождестве Богородицы Свято Пафнутьевском Боровском монастыре и о служении, которое несет в нем духовник монастыря, схиархимандрит Власий (Перегонцев).
По благословению митрополита Калужского и Боровского, высокопреосвещенного Климента отец Власий ведет здесь прием паломников...
Доп. информация:
Автор сценария и режиссер - Сергей Ломкин
Операторы - Владимир Кононенко, Сергей Ломкин
Композитор - Александр Луцкий
Монтаж - Лариса Смирнова
Текст читает - Борис Плотников
Директор - Людмила Ломкина
Дизайнер - Наталья Коваленко
качество: DVD5
формат: DVD-Video
Видео кодек: MPEG2 Video
Аудио кодек: MPEG Audio
Видео: MPEG2 Video 720x576 (4:3) 25fps 4100kbps [V: mpeg2 main, yuv420p, 720x576, 4100 kb/s]
Аудио: MPEG Audio 48000Hz stereo 192kbps [A: mp2, 48000 Hz, stereo, 192 kb/s]
отчёт MediaInfo
General
Complete name : E:\Мои раздачи\Лечебница духовная 2005 DVD\VIDEO_TS\VTS_01_1.VOB
Format : MPEG-PS
File size : 1 024 MiB
Duration : 32mn 38s
Overall bit rate : 4 386 Kbps
Writing library : encoded by TMPGEnc 3.0 XPress Version. 3.0.4.24
Video
ID : 224 (0xE0)
Format : MPEG Video
Format version : Version 2
Format profile : Main@Main
Format settings, BVOP : Yes
Format settings, Matrix : Custom
Format settings, GOP : M=3, N=13
Format settings, picture struc : Frame
Duration : 32mn 38s
Bit rate : 4 100 Kbps
Width : 720 pixels
Height : 576 pixels
Display aspect ratio : 4:3
Frame rate : 25.000 fps
Standard : PAL
Color space : YUV
Chroma subsampling : 4:2:0
Bit depth : 8 bits
Scan type : Interlaced
Scan order : Top Field First
Compression mode : Lossy
Bits/(Pixel*Frame) : 0.395
Time code of first frame : 00:00:00:00
Time code source : Group of pictures header
GOP, Open/Closed : Closed
Stream size : 959 MiB (94%)
Writing library : TMPGEnc 3.0 XPress Version. 3.0.4.24
Color primaries : BT.601 PAL
Transfer characteristics : BT.470 System B, BT.470 System G
Matrix coefficients : FCC 73.682
Audio
ID : 192 (0xC0)
Format : MPEG Audio
Format version : Version 1
Format profile : Layer 2
Duration : 32mn 38s
Bit rate mode : Constant
Bit rate : 192 Kbps
Channel(s) : 2 channels
Sampling rate : 48.0 KHz
Compression mode : Lossy
Stream size : 44.8 MiB (4%)
отчёт DVDInfo
Title: Лечебница духовная 2005 DVD
Size: 4.08 Gb ( 4 282 340,00 KBytes ) - DVD-5
Enabled regions: 1, 2, 3, 4, 5, 6, 7, 8
VTS_01 :
Play Length: 01:37:05
Video: PAL 4:3 (720x576) VBR
Audio:
Not specified (MPEG1, 2 ch)
VTS_02 :
Play Length: 00:35:39
Video: PAL 4:3 (720x576) VBR
Audio:
Not specified (MPEG1, 2 ch)
* Menus Information *
VIDEO_TS Menu
Video:
PAL 4:3 (720x576) VBR
Language Unit :
Title Menu
VTS_01 Menu
Video:
PAL 4:3 (720x576) VBR
Language Unit :
Root Menu
VTS_02 Menu
Video:
PAL 4:3 (720x576) VBR
Language Unit :
Root Menu
Скриншоты меню
Скриншоты