Благодатная обитель (Телекомпания "Кадр")

Благодатная обитель (Телекомпания "Кадр")
Название:
Благодатная обитель (Телекомпания "Кадр")
Размер:
756.4 MB
25
Скачать
Благодатная обитель
Дата/Год выпуска: 2013
Страна: Россия
Жанр: Православные святыни
Продолжительность: 00:41:54
Перевод: Не требуется
Русские субтитры: нет
Оригинальная аудиодорожка: русский
Режиссер: Телекомпания "Кадр"
Описание: Пожалуй, трудно найти другую такую обитель в России, где подобно Богоявленско-Анастасииному женскому монастырю хранится столько величайших христианских святынь. И это неслучайно. С древних времён Кострома была одним из главных центров духовной жизни Руси. Здесь в XIII веке совершилось явление чудотворной Феодоровской иконы Божией Матери. Одна из самых почитаемых российских святынь сегодня постоянно пребывает в монастыре. А всего на Костромской земле просияло более 38 угодников Божиих. Имена многих из них неразрывно связаны с Богоявленско-Анастасииной женской обителью.
Доп. информация: Это ознакомительная версия фильма, короче оригинальной на полторы минуты (отсутствует проповедь Патриарха Кирилла). Рип сделан с этого исходника: http://rutracker.org/forum/viewtopic.php?t=4978630
Сэмпл: https://www.sendspace.com/file/k37uiq
Качество: DVDRip
Формат: AVI
Видео: 2384 Кбит/сек, 720*400 (16:9), 25,000 кадров/сек, XviD
Аудио: Русский, 128 Кбит/сек, 48,0 КГц, 2 канала, MP3
MediaInfo
Общее
Полное имя : F:\MONAR.RU\Видео\Святыни Вселенского Православия\Благодатная обитель.avi
Формат : AVI
Формат/Информация : Audio Video Interleave
Размер файла : 772 Мбайт
Продолжительность : 42 м.
Общий поток : 2525 Кбит/сек
Видео
Идентификатор : 0
Формат : MPEG-4 Visual
Профиль формата : Advanced Simple@L5
Параметр BVOP формата : 2
Параметр QPel формата : Нет
Параметр GMC формата : Без точки перехода
Параметр матрицы формата : Выборочная
Идентификатор кодека : XVID
Идентификатор кодека/Подсказка : XviD
Продолжительность : 42 м.
Битрейт : 2384 Кбит/сек
Ширина : 720 пикселей
Высота : 400 пикселей
Соотношение сторон : 16:9
Частота кадров : 25,000 кадров/сек
Цветовое пространство : YUV
Субдискретизация насыщенности : 4:2:0
Битовая глубина : 8 бит
Тип развёртки : Прогрессивная
Метод сжатия : С потерями
Бит/(Пиксели*Кадры) : 0.331
Размер потока : 729 Мбайт (94%)
Библиотека кодирования : XviD 1.2.1 (UTC 2008-12-04)
Аудио
Идентификатор : 1
Формат : MPEG Audio
Версия формата : Version 1
Профиль формата : Layer 3
Идентификатор кодека : 55
Идентификатор кодека/Подсказка : MP3
Продолжительность : 42 м.
Продолжительность оригинала : 42 м.
Вид битрейта : Постоянный
Битрейт : 128 Кбит/сек
Каналы : 2 канала
Частота : 48,0 КГц
Метод сжатия : С потерями
Размер потока : 39,1 Мбайт (5%)
Выравнивание : Разделение по промежуткам
Продолжительность промежутка : 24 мс. (0,60 видеокадр)
Библиотека кодирования : LAME3.98.2ЄЄЄЄ
Скриншоты