Священник Алексий Мороз, Людмила Рябиченко - Митинг против ювенальной юстиции и закона об образовании

Священник Алексий Мороз, Людмила Рябиченко - Митинг против ювенальной юстиции и закона об образовании
Название:
Священник Алексий Мороз, Людмила Рябиченко - Митинг против ювенальной юстиции и закона об образовании
Размер:
70.6 MB
34
Скачать
Священник Алексий Мороз, Людмила Рябиченко - Митинг против ювенальной юстиции и закона об образовании
Год выпуска: 2012
Страна: Россия
Жанр: Православно-познавательный
Продолжительность: 00:04:26
Перевод: Не требуется
Русские субтитры: нет
Описание: Вниманию благочестивого зрителя предлагается фрагмент митинга 28 октября с участием священника Алексия Мороза и руководителя общественной организации "Семья, Любовь, Отечество" Людмилы Аркадьевны Рябиченко.
Доп. информация: Постера с названием нет.
Качество: CamRip
Формат: AVI
Видео кодек: XviD
Аудио кодек: MP3
Видео: 2085 Кбит/сек, 640*480 (4:3), в 25,000 кадров/сек, MPEG-4 Visual (XviD) (Simple@L3)
Аудио: Русский, 128 Кбит/сек, 44,1 КГц, 2 канала, MPEG Audio (MP3) (Version 1) (Layer 3) (Joint stereo / MS Stereo)
Media Info
Формат : AVI
Формат/Информация : Audio Video Interleave
Размер файла : 70,6 Мбайт
Продолжительность : 4 м. 26 с.
Общий поток : 2226 Кбит/сек
Видео
Идентификатор : 0
Формат : MPEG-4 Visual
Профиль формата : Simple@L3
Параметр BVOP формата : Нет
Параметр QPel формата : Нет
Параметр GMC формата : Без точки перехода
Параметр матрицы формата : Default (H.263)
Идентификатор кодека : XVID
Идентификатор кодека/Подсказка : XviD
Продолжительность : 4 м. 26 с.
Битрейт : 2085 Кбит/сек
Ширина : 640 пикселей
Высота : 480 пикселей
Соотношение сторон : 4:3
Частота кадров : 25,000 кадров/сек
Цветовое пространство : YUV
Субдискретизация насыщенности : 4:2:0
Битовая глубина : 8 бит
Тип развёртки : Прогрессивная
Метод сжатия : С потерями
Бит/(Пиксели*Кадры) : 0.271
Размер потока : 66,2 Мбайт (94%)
Библиотека кодирования : XviD 1.2.1 (UTC 2008-12-04)
Аудио
Идентификатор : 1
Формат : MPEG Audio
Версия формата : Version 1
Профиль формата : Layer 3
Режим : Joint stereo
Расширение режима : MS Stereo
Идентификатор кодека : 55
Идентификатор кодека/Подсказка : MP3
Продолжительность : 2 м. 53 с.
Продолжительность оригинала : 4 м. 26 с.
Вид битрейта : Постоянный
Битрейт : 128 Кбит/сек
Каналы : 2 канала
Частота : 44,1 КГц
Метод сжатия : С потерями
Размер потока : 4,06 Мбайт (6%)
Выравнивание : Соединение по промежуткам
Продолжительность промежутка : 26 мс. (0,65 видеокадр)
Библиотека кодирования : LAME3.98.2
Скриншоты