РОЖДЕСТВО ХРИСТОВО - 2010. Торжественное Рождественское богослужение из Кафедрального Соборного Храма Христа Спасителя (ПРЯМАЯ ТРАНСЛЯЦИЯ - Телеканал "Россия", SAT-TV, САТ-ТВ, 2010г.)

Название:
РОЖДЕСТВО ХРИСТОВО - 2010. Торжественное Рождественское богослужение из Кафедрального Соборного Храма Христа Спасителя (ПРЯМАЯ ТРАНСЛЯЦИЯ - Телеканал "Россия", SAT-TV, САТ-ТВ, 2010г.)
Размер:
2.83 GB
23
Скачать
РОЖДЕСТВО ХРИСТОВО - 2010. Торжественное Рождественское богослужение из Кафедрального Соборного Храма Христа Спасителя (ПРЯМАЯ ТРАНСЛЯЦИЯ - Телеканал "Россия" SAT-TV, САТ-ТВ, 2010г.)
Запись с SATTV!! Не пережат! 1:1. Без потерь качества!
ПРЯМАЯ ТРАНСЛЯЦИЯ - Телеканал "Россия" SAT-TV САТ-ТВ.

Год выпуска: 2010
Продолжительность: 1h 50mn - 2.83 GiB
Перевод: Не требуется
Русские субтитры: нет
Описание:
Главный православный собор России - храм Христа Спасителя, стал сегодня
для всей страны центром встречи великого праздника -
Рождества Христова.
В ночь на 7 января патриарх Кирилл возглавил встречу Рождества в кафедральном соборном храме Христа Спасителя.
Праздничная служба, включающая всенощное бдение и Божественную литургию, продлилась около пяти часов и завершилась примерно к
трем часам утра 7 января.
В крупнейшем храме столицы в эту ночь, как и в предыдущие годы, собралось более пяти тыс. человек.
Праздничные богослужения пройдут во всех действующих храмах Москвы, которых вместе с часовнями насчитывается более 800.
Всего же в мире - более 29 тыс. приходов РПЦ.
Вместе с Русской православной церковью Рождество в ночь на 7 января встречают Иерусалимская, Сербская и Грузинская
православные церкви, а также афонские монастыри, католики восточного обряда (Украинская греко-католическая церковь)
и некоторые протестанты, живущие по Юлианскому календарю.
На праздничном богослужении в главном храме России присутствует Президент
Дмитрий Медведев с супругой.
Запись с SATTV!! Не пережат! 1:1. Без потерь качества! ПРЯМАЯ ТРАНСЛЯЦИЯ - Телеканал "Россия" SAT-TV САТ-ТВ.
Качество: DVD5
Формат: MPEG
Видео кодек: MPEG2
Аудио кодек: MPEG Audio
Видео: PAL 4:3 (704x576) VBR - 3 676 Kbps
Аудио: Russian (MPEG1, 2 ch), Bit rate : 192 Kbps, Sampling rate : 48.0 KHz, Resolution : 16 bits
Подробная информация о файле
Rozhdestvo hristovo 2010.mpg
General
Complete name : Rozhdestvo hristovo 2010.mpg
Format : MPEG-PS
File size : 2.83 GiB
Duration : 1h 50mn
Overall bit rate : 3 676 Kbps
Writing library : (c) 1998-2009 Womble Multimedia, Inc. / MPEG Video Wizard (03/2009) / Dec 24 2009
Video #224
ID : 224 (0xE0)
Format : MPEG Video
Format version : Version 2
Format profile : Main@Main
Format settings, Matrix : Default
Duration : 1h 50mn
Bit rate mode : Variable
Bit rate : 3 338 Kbps
Nominal bit rate : 9 000 Kbps
Width : 704 pixels
Height : 576 pixels
Display aspect ratio : 4:3
Frame rate : 25.000 fps
Colorimetry : 4:2:0
Scan type : Interlaced
Scan order : Top Field First
Bits/(Pixel*Frame) : 0.329
Stream size : 2.57 GiB (91%)
Writing library : (c) 1998-2009 Womble Multimedia, Inc. / MPEG Video Wizard (03/2009) / Dec 24 2009
Audio #192
ID : 192 (0xC0)
Format : MPEG Audio
Format version : Version 1
Format profile : Layer 2
Duration : 1h 50mn
Bit rate mode : Constant
Bit rate : 192 Kbps
Channel(s) : 2 channels
Sampling rate : 48.0 KHz
Resolution : 16 bits
Stream size : 151 MiB (5%)
Скриншоты
Скринлист
ВСЕ МОИ РАЗДАЧИ С 04.05.07 !!