Христос в поэзии - Диск 1 (Андрей Соболь)

Христос в поэзии - Диск 1 (Андрей Соболь)
Название:
Христос в поэзии - Диск 1 (Андрей Соболь)
Размер:
2.62 GB
14
Скачать
Христос в поэзии (Диск 1)
Год выпуска: 2012
Страна: Россия
Жанр: Христианские стихи
Продолжительность: 00:59:17
Перевод: Не требуется
Русские субтитры: нет
Режиссер: Андрей Соболь
Описание: Христос в поэзии - вот главная и основная тема чтения стихов об Иисусе Л.И. Яшковой. Обладая даром божиим запоминания и чтения стихов, имея многолетний опыт выступлений перед слушателями, Л.И. Яшкова через стихи несёт людям веру в Иисуса Христа. В стихах лейтмотивом звучат призывы уверовать в Иисуса.
Треклист:
1. Есмь Бог
2. Как увидеть Бога
3. Мы дивно устроены
4. Разговор с медиком
5. Сердце человека
6. Воплощение
7. В багрянице стоишь Ты
8. Христос воскрес!
9. Я с тобою непрестанно
10. Некогда молиться
11. Познай творца
12. Посвятить себя Христу
13. Проснись, проснись
14. Что всего ценнее в мире
15. Ты взвешен и найден лёгким
16. Вера
17. Щит веры
18. О, Иисус, твоё имя выше
19. Божие дети
Доп. информация:
Это не HDrip, а отдельная интернет-версия проекта. DVD-версия будет выпущена ограниченным тиражом и распространяться в интернете не будет.
Предпросмотр на YouTube.
Вторая часть проекта доступна по ссылке.
Аудио-версия проекта на 2 CD доступна по ссылке.
Качество: HDRip
Формат: MP4
Видео кодек: H.264
Аудио кодек: AAC
Видео: H.264, 1280x720, 16:9, 5998 Кбит/сек, 25fps
Аудио: AAC, 320 Кбит/сек, 48,0 КГц, стерео
Скриншоты
MediaInfo
Общее
Полное имя : G:\Раздачи\rutracker.org\Христос в поэзии\Христос в поэзии.mp4
Формат : MPEG-4
Профиль формата : Base Media / Version 2
Идентификатор кодека : mp42
Размер файла : 2,62 Гбайт
Продолжительность : 59 м.
Режим общего битрейта : Переменный
Общий поток : 6319 Кбит/сек
Дата кодирования : UTC 2012-09-04 11:20:13
Дата пометки : UTC 2012-09-04 11:20:13
©TIM : 00:00:00:00
©TSC : 25
©TSZ : 1
Видео
Идентификатор : 1
Формат : AVC
Формат/Информация : Advanced Video Codec
Профиль формата : Main@L4.2
Параметр CABAC формата : Да
Параметр ReFrames формата : 3 кадра
Идентификатор кодека : avc1
Идентификатор кодека/Информация : Advanced Video Coding
Продолжительность : 59 м.
Битрейт : 5998 Кбит/сек
Ширина : 1280 пикселей
Высота : 720 пикселей
Соотношение сторон : 16:9
Режим частоты кадров : Постоянный
Частота кадров : 25,000 кадров/сек
Стандарт вещания : PAL
Цветовое пространство : YUV
Субдискретизация насыщенности : 4:2:0
Битовая глубина : 8 бит
Тип развёртки : Прогрессивная
Бит/(Пиксели*Кадры) : 0.260
Размер потока : 2,48 Гбайт (95%)
Язык : English
Дата кодирования : UTC 2012-09-04 11:20:13
Дата пометки : UTC 2012-09-04 11:20:13
Аудио
Идентификатор : 2
Формат : AAC
Формат/Информация : Advanced Audio Codec
Профиль формата : LC
Идентификатор кодека : 40
Продолжительность : 59 м.
Продолжительность оригинала : 59 м.
Вид битрейта : Переменный
Битрейт : 317 Кбит/сек
Максимальный битрейт : 426 Кбит/сек
Каналы : 2 канала
Расположение каналов : Front: L R
Частота : 48,0 КГц
Метод сжатия : С потерями
Размер потока : 135 Мбайт (5%)
Размер потока оригинала : 135 Мбайт (5%)
Язык : English
Дата кодирования : UTC 2012-09-04 11:20:13
Дата пометки : UTC 2012-09-04 11:20:13