Статья писателя-патриота В.Н. Осипова ''Волгоградский фронт и судьба государства'' (Студия православных фильмов во имя Апостола и Евангелиста Иоанна Богослова)

Статья писателя-патриота В.Н. Осипова ''Волгоградский фронт и судьба государства'' (Студия православных фильмов во имя Апостола и Евангелиста Иоанна Богослова)
Название:
Статья писателя-патриота В.Н. Осипова ''Волгоградский фронт и судьба государства'' (Студия православных фильмов во имя Апостола и Евангелиста Иоанна Богослова)
Размер:
270.4 MB
30
Скачать
Статья писателя-патриота В.Н. Осипова ''Волгоградский фронт и судьба государства''
Год выпуска: 2013
Страна: Россия
Жанр: Православные беседы
Продолжительность: 00:41:20
Перевод: Не требуется
Русские субтитры: нет
Режиссер: Студия православных фильмов во имя Апостола и Евангелиста Иоанна Богослова
Описание: Лидер "Союза Христианское возрождение" Владимир Николаевич Осипов доказательно призывает Народный фронт отмежеваться от антигосударственников, проталкивающих свои антиправославные законы и рабтающие на ликвидацию страны.
Сэмпл: http://multi-up.com/860088
Качество: SATRip
Формат: AVI
Видеокодек: XviD
Аудиокодек: MP3
Видео: 774 Кбит/сек, 640*480 (4:3), в 25,000 кадров/сек, MPEG-4 Visual (XviD) (Simple@L3)
Аудио: Русский, 128 Кбит/сек, 44,1 КГц, 2 канала, MPEG Audio (MP3) (Version 1) (Layer 3) (Joint stereo / MS Stereo)
MediaInfo
Формат : AVI
Формат/Информация : Audio Video Interleave
Размер файла : 270 Мбайт
Продолжительность : 41 м.
Общий поток : 914 Кбит/сек
Программа кодирования : Lavf52.32.0
Видео
Идентификатор : 0
Формат : MPEG-4 Visual
Профиль формата : Simple@L3
Параметр BVOP формата : Нет
Параметр QPel формата : Нет
Параметр GMC формата : Без точки перехода
Параметр матрицы формата : Default (H.263)
Идентификатор кодека : XVID
Идентификатор кодека/Подсказка : XviD
Продолжительность : 41 м.
Битрейт : 774 Кбит/сек
Ширина : 640 пикселей
Высота : 480 пикселей
Соотношение сторон : 4:3
Частота кадров : 25,000 кадров/сек
Цветовое пространство : YUV
Субдискретизация насыщенности : 4:2:0
Битовая глубина : 8 бит
Тип развёртки : Прогрессивная
Метод сжатия : С потерями
Бит/(Пиксели*Кадры) : 0.101
Размер потока : 229 Мбайт (85%)
Библиотека кодирования : XviD 1.2.1 (UTC 2008-12-04)
Аудио
Идентификатор : 1
Формат : MPEG Audio
Версия формата : Version 1
Профиль формата : Layer 3
Режим : Joint stereo
Расширение режима : MS Stereo
Идентификатор кодека : 55
Идентификатор кодека/Подсказка : MP3
Продолжительность : 41 м.
Вид битрейта : Постоянный
Битрейт : 128 Кбит/сек
Каналы : 2 канала
Частота : 44,1 КГц
Метод сжатия : С потерями
Размер потока : 37,8 Мбайт (14%)
Выравнивание : Соединение по промежуткам
Продолжительность промежутка : 26 мс. (0,65 видеокадр)
Библиотека кодирования : LAME3.98.2
Скриншоты