Беседа о. Виктора Кузнецова с р.Б. Екатериной, посвященная духовной оценке происходящих событий (Студия православных фильмов во имя Апостола и Евангелиста Иоанна Богослова)

Беседа о. Виктора Кузнецова с р.Б. Екатериной, посвященная духовной оценке происходящих событий (Студия православных фильмов во имя Апостола и Евангелиста Иоанна Богослова)
Название:
Беседа о. Виктора Кузнецова с р.Б. Екатериной, посвященная духовной оценке происходящих событий (Студия православных фильмов во имя Апостола и Евангелиста Иоанна Богослова)
Размер:
1.26 GB
22
Скачать
Беседа о. Виктора Кузнецова с р.Б. Екатериной, посвященная духовной оценке происходящих событий
Год выпуска: 2013
Страна: Россия
Жанр: Православные беседы
Продолжительность: 00:57:38 + 01:03:57
Перевод: Не требуется
Русские субтитры: нет
Режиссер: Студия православных фильмов во имя Апостола и Евангелиста Иоанна Богослова
Описание: В своей беседе отец Виктор Кузнецов напоминает об обязанности каждого православного христианина стоять в Истине и не поддаваться на злоухищрения слуг века сего, а аткже раскрывает духовный смысл недавно произошедших "мировых" событий.
Доп. информация: На ютубе первая беседа длиннее на десять минут, вторая длиннее на четыре минуты.
Сэмпл: http://multi-up.com/864032
Качество: SATRip
Формат: AVI
Видеокодек: XviD
Аудиокодек: MP3
Видео: 640*480 (4:3), в 25,000 кадров/сек, MPEG-4 Visual (XviD) (Simple@L3)
Аудио: Русский, 128 Кбит/сек, 44,1 КГц, 2 канала, MPEG Audio (MP3) (Version 1) (Layer 3) (Joint stereo / MS Stereo)
Битрейты, характеристики и скриншоты
Часть 1
1291 Кбит/сек
Media Info
Формат : AVI
Формат/Информация : Audio Video Interleave
Размер файла : 638 Мбайт
Продолжительность : 57 м.
Общий поток : 1547 Кбит/сек
Видео
Идентификатор : 0
Формат : MPEG-4 Visual
Профиль формата : Simple@L3
Параметр BVOP формата : Нет
Параметр QPel формата : Нет
Параметр GMC формата : Без точки перехода
Параметр матрицы формата : Default (H.263)
Идентификатор кодека : XVID
Идентификатор кодека/Подсказка : XviD
Продолжительность : 57 м.
Битрейт : 1406 Кбит/сек
Ширина : 640 пикселей
Высота : 480 пикселей
Соотношение сторон : 4:3
Частота кадров : 25,000 кадров/сек
Цветовое пространство : YUV
Субдискретизация насыщенности : 4:2:0
Битовая глубина : 8 бит
Тип развёртки : Прогрессивная
Метод сжатия : С потерями
Бит/(Пиксели*Кадры) : 0.183
Размер потока : 580 Мбайт (91%)
Библиотека кодирования : XviD 1.2.1 (UTC 2008-12-04)
Аудио
Идентификатор : 1
Формат : MPEG Audio
Версия формата : Version 1
Профиль формата : Layer 3
Режим : Joint stereo
Расширение режима : MS Stereo
Идентификатор кодека : 55
Идентификатор кодека/Подсказка : MP3
Продолжительность : 37 м.
Продолжительность оригинала : 57 м.
Вид битрейта : Постоянный
Битрейт : 128 Кбит/сек
Каналы : 2 канала
Частота : 44,1 КГц
Метод сжатия : С потерями
Размер потока : 52,8 Мбайт (8%)
Выравнивание : Соединение по промежуткам
Продолжительность промежутка : 26 мс. (0,65 видеокадр)
Часть 2
1291 Кбит/сек
Media Info
Формат : AVI
Формат/Информация : Audio Video Interleave
Размер файла : 655 Мбайт
Продолжительность : 1 ч. 3 м.
Общий поток : 1432 Кбит/сек
Видео
Идентификатор : 0
Формат : MPEG-4 Visual
Профиль формата : Simple@L3
Параметр BVOP формата : Нет
Параметр QPel формата : Нет
Параметр GMC формата : Без точки перехода
Параметр матрицы формата : Default (H.263)
Идентификатор кодека : XVID
Идентификатор кодека/Подсказка : XviD
Продолжительность : 1 ч. 3 м.
Битрейт : 1291 Кбит/сек
Ширина : 640 пикселей
Высота : 480 пикселей
Соотношение сторон : 4:3
Частота кадров : 25,000 кадров/сек
Цветовое пространство : YUV
Субдискретизация насыщенности : 4:2:0
Битовая глубина : 8 бит
Тип развёртки : Прогрессивная
Метод сжатия : С потерями
Бит/(Пиксели*Кадры) : 0.168
Размер потока : 591 Мбайт (90%)
Библиотека кодирования : XviD 1.2.1 (UTC 2008-12-04)
Аудио
Идентификатор : 1
Формат : MPEG Audio
Версия формата : Version 1
Профиль формата : Layer 3
Режим : Joint stereo
Расширение режима : MS Stereo
Идентификатор кодека : 55
Идентификатор кодека/Подсказка : MP3
Продолжительность : 41 м.
Продолжительность оригинала : 1 ч. 3 м.
Вид битрейта : Постоянный
Битрейт : 128 Кбит/сек
Каналы : 2 канала
Частота : 44,1 КГц
Метод сжатия : С потерями
Размер потока : 58,5 Мбайт (9%)
Выравнивание : Соединение по промежуткам
Продолжительность промежутка : 26 мс. (0,65 видеокадр)