IV Предсоборное совещание ''Союза Христианское Возрождение'' (Студия православных фильмов во имя Апостола и Евангелиста Иоанна Богослова)

IV Предсоборное совещание ''Союза Христианское Возрождение'' (Студия православных фильмов во имя Апостола и Евангелиста Иоанна Богослова)
Название:
IV Предсоборное совещание ''Союза Христианское Возрождение'' (Студия православных фильмов во имя Апостола и Евангелиста Иоанна Богослова)
Размер:
743.7 MB
28
Скачать
IV Предсоборное совещание ''Союза Христианское Возрождение''
Год выпуска: 2012
Страна: Россия
Жанр: Православно-познавательный
Продолжительность: 02:00:33
Перевод: Не требуется
Русские субтитры: нет
Режиссер: Студия православных фильмов во имя Апостола и Евангелиста Иоанна Богослова
Описание: В Москве 26 октября 2012 года Союз "Христианское Возрождение" и Союз Православных Братств провели Четвертое Предсоборное Совещание православно-монархических сил по подготовке Земского Собора ( по образцу Собора 1613 г.).
Первое подобное Совещание состоялось 22 года назад, 21-23 сентября 1990 г., еще при советском режиме. Тогда впервые после преступной Февральской революции 1917 г. пронесли по еще коммунистической Москве портрет Государя Николая II. Второе Совещание прошло 21-23 сентября 1993 г. в Нижнем Тагиле. В ту историческую минуту была надежда, что вслед за внезапным падением красного монолита может случиться и скорое восстановление Православной Монархии. 10 октября 2009 г. состоялось Третье Предсоборное Совещание, на котором участники потребовали от президента Медведева выполнения самых назревших национальных проблем.
На очередном 4-м Предсоборном Совещании 26 октября 2012 г. были озвучены важные доклады современных представителей православно-монархической идеологии, которые верят в возрождение Третьего Рима - единственной альтернативы антихристовой глобализации.
Мы - русские ! С нами - Бог !
В данной раздаче приведены важнейшие фрагменты данного совещания - выступления титанов православно-монархической мысли: Владимира Осипова, Владимира Семенко, Леонида Болотина, Андрея Хвалина и Валерия Архипова.
Качество: CamRip
Формат: AVI
Видео кодек: XviD
Аудио кодек: MP3
Видео: 722 Кбит/сек, 640*480 (4:3), в 23,976 кадра/сек, MPEG-4 Visual (XviD) (Simple@L3)
Аудио: Русский, 128 Кбит/сек, 44,1 КГц, 2 канала, MPEG Audio (MP3) (Version 1) (Layer 3) (Joint stereo / MS Stereo)
Media Info
Формат : AVI
Формат/Информация : Audio Video Interleave
Размер файла : 744 Мбайт
Продолжительность : 2 ч. 0 м.
Общий поток : 862 Кбит/сек
Видео
Идентификатор : 0
Формат : MPEG-4 Visual
Профиль формата : Simple@L3
Параметр BVOP формата : Нет
Параметр QPel формата : Нет
Параметр GMC формата : Без точки перехода
Параметр матрицы формата : Default (H.263)
Идентификатор кодека : XVID
Идентификатор кодека/Подсказка : XviD
Продолжительность : 2 ч. 0 м.
Битрейт : 722 Кбит/сек
Ширина : 640 пикселей
Высота : 480 пикселей
Соотношение сторон : 4:3
Частота кадров : 23,976 кадра/сек
Цветовое пространство : YUV
Субдискретизация насыщенности : 4:2:0
Битовая глубина : 8 бит
Тип развёртки : Прогрессивная
Метод сжатия : С потерями
Бит/(Пиксели*Кадры) : 0.098
Размер потока : 623 Мбайт (84%)
Библиотека кодирования : XviD 1.2.1 (UTC 2008-12-04)
Аудио
Идентификатор : 1
Формат : MPEG Audio
Версия формата : Version 1
Профиль формата : Layer 3
Режим : Joint stereo
Расширение режима : MS Stereo
Идентификатор кодека : 55
Идентификатор кодека/Подсказка : MP3
Продолжительность : 1 ч. 15 м.
Продолжительность оригинала : 2 ч. 0 м.
Вид битрейта : Постоянный
Битрейт : 128 Кбит/сек
Каналы : 2 канала
Частота : 44,1 КГц
Метод сжатия : С потерями
Размер потока : 110 Мбайт (15%)
Выравнивание : Соединение по промежуткам
Продолжительность промежутка : 26 мс. (0,63 видеокадр)
Скриншоты