Благослови, душе моя, Господа (Андрей Павлович)

Название:
Благослови, душе моя, Господа (Андрей Павлович)
Размер:
960.9 MB
20
Скачать
Благослови, душе моя, Господа
Год выпуска: 2001
Страна: Россия
Жанр: Православно-познавательный
Продолжительность: 01:02:11
Перевод: Не требуется
Русские субтитры: нет
Режиссер: А. Павлович
Описание: Каждый год в Санкт-Петербурге в стенах Духовных Школ проходит Сретенскии фестиваль духовной и народной музыки, в котором участвуют певцы со всей России. Клиросные хоры святых обителей, храмов, воскресных школ, хоровые и фольклорные коллективы, солисты исполняют духовную музыку русских и зарубежных композиторов, народные песни.
Этот фильм посвящен первому фестивалю, положившему начало замечательной традиции. Звучит музыка Д. Бортнянского, С. Рахманинова, П. Чайковского, В. А. Моцарта, народные песни и колядки...
Духовная музыка — неотъемлемая часть русской культуры. Она написана теми, кто в результате личного духовного опыта смог создать Царствие Божие внутри самого себя. О значении духовной музыки в жизни человека рассказывает этот фильм-концерт.
Имена многих выдающихся композиторов разных эпох связаны с городом на Неве. Здесь жили и трудились Алексей Григорьевич Разумовский, Гавриил Иоакимович Ломакин, Артемий Лукьянович Ведель, Алексей Федорович Львов, Дмитрий Сергеевич Бортнянский, Александр Дмитриевич Кастальский, Михаил Иванович Глинка, Александр Андреевич Архангельский, Петр Ильич Чайковский, Александр Тихонович Гречанинов, Николай Андреевич Римский-Корсаков, Милий Алексеевич Балакиреве, Степан Васильевич Смоленский, Александр Сергеевич Даргомыжский и многие другие.
Доп. информация: Это ознакомительная версия фильма. Полную семидесятиминутную версию с комментариями митрополита Владимира (Котлярова) можно приобрести в православной студии Петербурга, поддержав тем самым отечественного производителя.
Рип сделан с этого исходника: http://rutracker.org/forum/viewtopic.php?t=4224002
Качество: DVDRip
Формат: AVI
Видео кодек: XviD
Аудио кодек: MP3
Видео: 2019 Кбит/сек, 688*528 (4:3), в 25,000 кадров/сек, MPEG-4 Visual (XviD) (Advanced Simple@L5) (BVOP2)
Аудио: Русский, 128 Кбит/сек, 48,0 КГц, 2 канала, MPEG Audio (MP3) (Version 1) (Layer 3)
Media Info
Формат : AVI
Формат/Информация : Audio Video Interleave
Размер файла : 961 Мбайт
Продолжительность : 1 ч. 2 м.
Общий поток : 2160 Кбит/сек
Видео
Идентификатор : 0
Формат : MPEG-4 Visual
Профиль формата : Advanced Simple@L5
Параметр BVOP формата : 2
Параметр QPel формата : Нет
Параметр GMC формата : Без точки перехода
Параметр матрицы формата : Default (H.263)
Идентификатор кодека : XVID
Идентификатор кодека/Подсказка : XviD
Продолжительность : 1 ч. 2 м.
Битрейт : 2019 Кбит/сек
Ширина : 688 пикселей
Высота : 528 пикселей
Соотношение сторон : 4:3
Частота кадров : 25,000 кадров/сек
Цветовое пространство : YUV
Субдискретизация насыщенности : 4:2:0
Битовая глубина : 8 бит
Тип развёртки : Прогрессивная
Метод сжатия : С потерями
Бит/(Пиксели*Кадры) : 0.222
Размер потока : 898 Мбайт (93%)
Библиотека кодирования : XviD 1.2.1 (UTC 2008-12-04)
Аудио
Идентификатор : 1
Формат : MPEG Audio
Версия формата : Version 1
Профиль формата : Layer 3
Идентификатор кодека : 55
Идентификатор кодека/Подсказка : MP3
Продолжительность : 1 ч. 2 м.
Продолжительность оригинала : 1 ч. 2 м.
Вид битрейта : Постоянный
Битрейт : 128 Кбит/сек
Каналы : 2 канала
Частота : 48,0 КГц
Метод сжатия : С потерями
Размер потока : 56,9 Мбайт (6%)
Выравнивание : Разделение по промежуткам
Продолжительность промежутка : 24 мс. (0,60 видеокадр)
Скриншоты