Православия исповедник (Виктор Трынкин)

Православия исповедник (Виктор Трынкин)
Название:
Православия исповедник (Виктор Трынкин)
Размер:
526 MB
24
Скачать
Православия исповедник
Страна: Россия
Жанр: Православные подвижники благочестия
Продолжительность: 00:29:28
Год выпуска: 2002
Перевод: Не требуется
Русские субтитры: нет
Режиссер: В. Трынкин
Описание: Фильм повествует о жизненном пути, подвиге и посмертном заступничестве своих духовных чад старца иеросхимонаха Сампсона, графа Сиверса.
Доп. информация: Рип сделан с этого исходника: http://rutracker.org/forum/viewtopic.php?t=4347149
Сэмпл: http://multi-up.com/830687
Качество: DVDRip
Формат: AVI
Видео кодек: XviD
Аудио кодек: MP3
Видео: 2354 Кбит/сек, 672*496 (4:3), в 25,000 кадров/сек, MPEG-4 Visual (XviD) (Advanced Simple@L5) (BVOP2)
Аудио: Русский, 128 Кбит/сек, 48,0 КГц, 2 канала(ов), MPEG Audio (MP3) (Version 1) (Layer 3) (Joint Stereo)
Media Info
Формат : AVI
Формат/Информация : Audio Video Interleave
Размер файла : 526 Мбайт
Продолжительность : 29 м.
Общий поток : 2495 Кбит/сек
Видео
Идентификатор : 0
Формат : MPEG-4 Visual
Профиль формата : Advanced Simple@L5
Параметр BVOP формата : 2
Параметр QPel формата : Нет
Параметр GMC формата : Без точки перехода
Параметр матрицы формата : Default (H.263)
Идентификатор кодека : XVID
Идентификатор кодека/Подсказка : XviD
Продолжительность : 29 м.
Битрейт : 2354 Кбит/сек
Ширина : 672 пикселя
Высота : 496 пикселей
Соотношение сторон : 4:3
Частота кадров : 25,000 кадров/сек
Цветовое пространство : YUV
Субдискретизация насыщенности : 4:2:0
Битовая глубина : 8 бит
Тип развёртки : Прогрессивная
Метод сжатия : С потерями
Бит/(Пиксели*Кадры) : 0.282
Размер потока : 496 Мбайт (94%)
Библиотека кодирования : XviD 1.2.1 (UTC 2008-12-04)
Аудио
Идентификатор : 1
Формат : MPEG Audio
Версия формата : Version 1
Профиль формата : Layer 3
Идентификатор кодека : 55
Идентификатор кодека/Подсказка : MP3
Продолжительность : 29 м.
Продолжительность оригинала : 29 м.
Вид битрейта : Постоянный
Битрейт : 128 Кбит/сек
Каналы : 2 канала
Частота : 48,0 КГц
Метод сжатия : С потерями
Размер потока : 27,0 Мбайт (5%)
Выравнивание : Разделение по промежуткам
Продолжительность промежутка : 24 мс. (0,60 видеокадр)
Скриншоты
13.02.13 Торрент-файл перезалит. Раздача заменена с VHSRip на DVDRip.