Людмила Рябиченко - Выступление на православной выставке

Людмила Рябиченко - Выступление на православной выставке
Название:
Людмила Рябиченко - Выступление на православной выставке
Размер:
236.2 MB
27
Скачать
Людмила Рябиченко - Выступление на православной выставке
Год выпуска: 2012
Страна: Россия
Жанр: Православные беседы
Продолжительность: 00:29:56
Перевод: Не требуется
Русские субтитры: нет
Описание: Выступления руководителя общественной организации "Семья, Любовь, Отечество" Людмилы Аркадьевны Рябиченко на Троицкой православной выставке в Санкт-Петербурге о ювенальной юстиции.
Доп. информация: Постера с названием нет.
Качество: CamRip
Формат: AVI
Видео кодек: XviD
Аудио кодек: MP3
Видео: 963 Кбит/сек, 624*464 (4:3), в 25,000 кадров/сек, MPEG-4 Visual (XviD) (Advanced Simple@L5) (BVOP2)
Аудио: Русский, 128 Кбит/сек, 44,1 КГц, 2 канала, MPEG Audio (MP3) (Version 1) (Layer 3) (Joint stereo / MS Stereo)
Media Info
Формат : AVI
Формат/Информация : Audio Video Interleave
Размер файла : 236 Мбайт
Продолжительность : 29 м.
Общий поток : 1103 Кбит/сек
Видео
Идентификатор : 0
Формат : MPEG-4 Visual
Профиль формата : Advanced Simple@L5
Параметр BVOP формата : 2
Параметр QPel формата : Нет
Параметр GMC формата : Без точки перехода
Параметр матрицы формата : Default (H.263)
Идентификатор кодека : XVID
Идентификатор кодека/Подсказка : XviD
Продолжительность : 29 м.
Битрейт : 963 Кбит/сек
Ширина : 624 пикселя
Высота : 464 пикселя
Соотношение сторон : 4:3
Частота кадров : 25,000 кадров/сек
Цветовое пространство : YUV
Субдискретизация насыщенности : 4:2:0
Битовая глубина : 8 бит
Тип развёртки : Прогрессивная
Метод сжатия : С потерями
Бит/(Пиксели*Кадры) : 0.133
Размер потока : 206 Мбайт (87%)
Библиотека кодирования : XviD 1.2.1 (UTC 2008-12-04)
Аудио
Идентификатор : 1
Формат : MPEG Audio
Версия формата : Version 1
Профиль формата : Layer 3
Режим : Joint stereo
Расширение режима : MS Stereo
Идентификатор кодека : 55
Идентификатор кодека/Подсказка : MP3
Продолжительность : 19 м.
Продолжительность оригинала : 29 м.
Вид битрейта : Постоянный
Битрейт : 128 Кбит/сек
Каналы : 2 канала
Частота : 44,1 КГц
Метод сжатия : С потерями
Размер потока : 27,4 Мбайт (12%)
Выравнивание : Соединение по промежуткам
Продолжительность промежутка : 26 мс. (0,65 видеокадр)
Скриншоты