Святые горы - врата спасения (Михаил Воробьёв)

Святые горы - врата спасения (Михаил Воробьёв)
Название:
Святые горы - врата спасения (Михаил Воробьёв)
Размер:
781.8 MB
32
Скачать
Святые горы - врата спасения
Год выпуска: 2012
Страна: Украина
Жанр: Православные святыни
Продолжительность: 01:28:58
Перевод: Не требуется
Русские субтитры: нет
Режиссер: М. Воробьёв
Описание: Новый фильм о Свято-Упенской Святогорской Лавре повествует историю ее возникновения, упадка в советский период и особенно восстановления.
Доп. информация: Это неофициальная версия фильма, без меню. Лицензионную версию, включающую по ходу фильма двухминутную проповедь Святейшего Патриарха Кирилла, можно приобрести в студии ТРК "Глас", поддержав тем самым отечественного производителя.
Рип сделан с этого исходника: http://rutracker.org/forum/viewtopic.php?t=4402700
В промежутке с 00:16:53 до 00:17:18, к сожалению, присутствует реклама постороннего ресурса.
Сэмпл: http://multi-up.com/851111
Качество: DVDRip
Формат: AVI
Видеокодек: XviD
Аудиокодек: MP3
Видео: 1087 Кбит/сек, 704*400 (16:9), в 25,000 кадров/сек, MPEG-4 Visual (XviD) (Advanced Simple@L5) (BVOP2)
Аудио: Русский, 128 Кбит/сек, 48,0 КГц, 2 канала, MPEG Audio (MP3) (Version 1) (Layer 3)
MediaInfo
Формат : AVI
Формат/Информация : Audio Video Interleave
Размер файла : 782 Мбайт
Продолжительность : 1 ч. 28 м.
Общий поток : 1229 Кбит/сек
Видео
Идентификатор : 0
Формат : MPEG-4 Visual
Профиль формата : Advanced Simple@L5
Параметр BVOP формата : 2
Параметр QPel формата : Нет
Параметр GMC формата : Без точки перехода
Параметр матрицы формата : Default (H.263)
Идентификатор кодека : XVID
Идентификатор кодека/Подсказка : XviD
Продолжительность : 1 ч. 28 м.
Битрейт : 1087 Кбит/сек
Ширина : 704 пикселя
Высота : 400 пикселей
Соотношение сторон : 16:9
Частота кадров : 25,000 кадров/сек
Цветовое пространство : YUV
Субдискретизация насыщенности : 4:2:0
Битовая глубина : 8 бит
Тип развёртки : Прогрессивная
Метод сжатия : С потерями
Бит/(Пиксели*Кадры) : 0.154
Размер потока : 692 Мбайт (89%)
Библиотека кодирования : XviD 1.2.1 (UTC 2008-12-04)
Аудио
Идентификатор : 1
Формат : MPEG Audio
Версия формата : Version 1
Профиль формата : Layer 3
Идентификатор кодека : 55
Идентификатор кодека/Подсказка : MP3
Продолжительность : 1 ч. 28 м.
Продолжительность оригинала : 1 ч. 28 м.
Вид битрейта : Постоянный
Битрейт : 128 Кбит/сек
Каналы : 2 канала
Частота : 48,0 КГц
Метод сжатия : С потерями
Размер потока : 81,5 Мбайт (10%)
Выравнивание : Разделение по промежуткам
Продолжительность промежутка : 24 мс. (0,60 видеокадр)
Скриншоты