Исторические корни «Рождественской» елки, «Сант» и «Клаусов» / Jim Staley (Jim Staley)

Исторические корни «Рождественской» елки, «Сант» и «Клаусов» / Jim Staley (Jim Staley)
Название:
Исторические корни «Рождественской» елки, «Сант» и «Клаусов» / Jim Staley (Jim Staley)
Размер:
412.2 MB
28
Скачать
Исторические корни «Рождественской» елки, «Сант» и «Клаусов» / Jim Staley
Год выпуска: 2011
Страна: США
Жанр: семинар, проповедь
Продолжительность: 1:55:04
Перевод: Профессиональный (одноголосый)
Русские субтитры: нет
Режиссер: Jim Staley
Описание: За небольшое время этой передачи вы сможете узнать много нового, в частности, о дате рождения Господа Иисуса Христа строго на основе Библии и данных истории, о дьявольском происхождении всех столь привычных нам с детства рождественских и новогодних традиций: санта клаус, дед мороз, ёлочка и так далее.
Знаете ли вы, что в 16-м веке во время игры популярных пьес, прежде чем дьявол появлялся на сцене, он заявлял о своём присутствии, произнося фразу «ХО, ХО, ХО»? И это то, откуда Санта Клаус получил свою самую знаменитую фразу! Знаете ли вы, что в 1970 году католическая церковь признала, что св.Николая не существовало?
Вы будете ШОКИРОВАНЫ подробностями этого видео! И это НЕ для слабонервных! НЕ СМОТРИТЕ это, если НЕ хотите знать правду. Даже если вы уже знаете историю, это видео бросит вызов даже вам.
ВНИМАНИЕ! Торрент-файл перезалит 09,02,2012. Причина: исправлена синхронизация звуковой дорожки.
Качество: HDRip
Формат: m4v
Видео кодек: H.264
Аудио кодек: AAC
Видео: h.264 размер: 1280*720 16:9 400kb/s 29.9fps
Аудио: 96kb/s 41000Hz 2ch
Отчет MediaInfo:
скрытый текст
Формат : MPEG-4
Профиль формата : Base Media / Version 2
Идентификатор кодека : mp42
Размер файла : 412 Мбайт
Продолжительность : 1 ч. 55 м.
Режим общего битрейта : Переменный
Общий поток : 501 Кбит/сек
Дата кодирования : UTC 2012-02-08 08:42:51
Дата пометки : UTC 2012-02-08 10:53:22
Программа кодирования : HandBrake 0.9.5 2011010300
Видео
Идентификатор : 1
Формат : AVC
Формат/Информация : Advanced Video Codec
Профиль формата : High@L4.0
Параметр CABAC формата : Да
Параметр ReFrames формата : 9 кадров
Идентификатор кодека : avc1
Идентификатор кодека/Информация : Advanced Video Coding
Продолжительность : 1 ч. 55 м.
Вид битрейта : Переменный
Битрейт : 400 Кбит/сек
Ширина : 1280 пикселей
Высота : 720 пикселей
Соотношение сторон : 16:9
Режим частоты кадров : Постоянный
Частота кадров : 29,970 кадров/сек
Цветовое пространство : YUV
Субдискретизация насыщенности : 4:2:0
Битовая глубина : 8 бит
Тип развёртки : Прогрессивная
Бит/(Пиксели*Кадры) : 0.014
Размер потока : 329 Мбайт (80%)
Библиотека кодирования : x264 core 112
Настройки программы : cabac=1 / ref=9 / deblock=1:0:0 / analyse=0x3:0x113 / me=dia / subme=9 / psy=1 / psy_rd=1.00:0.00 / mixed_ref=1 / me_range=16 / chroma_me=1 / trellis=1 / 8x8dct=1 / cqm=0 / deadzone=21,11 / fast_pskip=1 / chroma_qp_offset=-2 / threads=6 / sliced_threads=0 / nr=0 / decimate=1 / interlaced=0 / constrained_intra=0 / bframes=9 / b_pyramid=2 / b_adapt=2 / b_bias=0 / direct=3 / weightb=1 / open_gop=0 / weightp=2 / keyint=300 / keyint_min=29 / scenecut=40 / intra_refresh=0 / rc_lookahead=50 / rc=2pass / mbtree=1 / bitrate=400 / ratetol=1.0 / qcomp=0.60 / qpmin=3 / qpmax=51 / qpstep=4 / cplxblur=20.0 / qblur=0.5 / ip_ratio=1.40 / aq=1:1.00
Дата кодирования : UTC 2012-02-08 08:42:51
Дата пометки : UTC 2012-02-08 10:53:22
Основные цвета : BT.709-5, BT.1361, IEC 61966-2-4, SMPTE RP177
Характеристики трансфера : BT.709-5, BT.1361
Коэффициенты матрицы : BT.709-5, BT.1361, IEC 61966-2-4 709, SMPTE RP177
Аудио
Идентификатор : 2
Формат : AAC
Формат/Информация : Advanced Audio Codec
Профиль формата : LC
Идентификатор кодека : 40
Продолжительность : 1 ч. 55 м.
Вид битрейта : Переменный
Битрейт : 96,0 Кбит/сек
Максимальный битрейт : 191 Кбит/сек
Каналы : 2 канала
Расположение каналов : Front: L R
Частота : 44,1 КГц
Метод сжатия : С потерями
Размер потока : 79,0 Мбайт (19%)
Дата кодирования : UTC 2012-02-08 08:42:51
Дата пометки : UTC 2012-02-08 10:53:21
Скриншоты