Как выбрать вторую половину. О христианском браке (Благотворительный фонд "Миссионерский центр имени иерея Даниила Сысоева")

Как выбрать вторую половину. О христианском браке (Благотворительный фонд "Миссионерский центр имени иерея Даниила Сысоева")
Название:
Как выбрать вторую половину. О христианском браке (Благотворительный фонд "Миссионерский центр имени иерея Даниила Сысоева")
Размер:
3.25 GB
30
Скачать
Как выбрать вторую половину. О христианском браке
Год выпуска: 2013
Страна: Россия
Жанр: Православные беседы
Продолжительность: 02:16:01
Перевод: Не требуется
Русские субтитры: нет
Оригинальная аудиодорожка: русский
Режиссер: Благотворительный фонд "Миссионерский центр имени иерея Даниила Сысоева"
Описание: Встреча схиархимандрита Иоакима (Парра) в Просветительском Центре Православной Семьи во имя святых благоверных князей Петра и Февронии Муромских. Беседа на тему: «Как выбратьвторую половину. О христианском браке».
Вы собрались в длительную поездку, и вам нужен хороший попутчик. Он хочет помочь вам добраться туда, куда вы хотите. Но есть одна проблема: попутчик слеп. Как он может помочь вам ехать, если не видит сам? Вы скажете: «Неважно, что он слепой, я же люблю его, как и он меня. Мы сядем и поедем». Далеко, однако, так мы не уедем. Кто мы? Чего мы ищем? Отец Иоаким в своей беседе говорит о смысле христианского брака и его цели, как спасении души через возможность спасения ближнего. Раскрывает духовно-нравственные критерии для выбора супруга, говорит о качествах и внутреннем содержании, которыми должен обладать человек, желающий вступить в брак.
Сэмпл: http://www.sendspace.com/file/nikqu7
Качество: DVD5
Формат: DVD Video
Видео: 2697 Кбит/сек, 720*576 (4:3), 25,000 кадров/сек, MPEG2
Аудио: Русский, 192 Кбит/сек, 48,0 КГц, 16 бит, 2 канала, AC-3
DVDInfo
Title: Новый том
Size: 3.25 Gb ( 3 404 952 KBytes ) - DVD-5
Enabled regions: 1, 2, 3, 4, 5, 6, 8
VTS_01 :
Play Length: 02:16:01
Video: PAL 4:3 (720x576) VBR
Audio:
English (Dolby AC3, 2 ch)
Menu Video:
PAL 4:3 (720x576) VBR
Menu English Language Unit :
Root Menu /
MediaInfo
Общее
Полное имя : L:\Monar.ru\Видео\Документальные фильмы\Познавательные фильмы\Как выбрать вторую половину. О христианском браке\VIDEO_TS\VIDEO_TS.BUP
Формат : DVD Video
Профиль формата : Menu
Размер файла : 12,0 Кбайт
Режим общего битрейта : Переменный
Видео
Идентификатор : 224 (0xE0)
Формат : MPEG Video
Версия формата : Version 2
Вид битрейта : Переменный
Ширина : 720 пикселей
Высота : 576 пикселей
Соотношение сторон : 4:3
Частота кадров : 25,000 кадров/сек
Стандарт вещания : PAL
Метод сжатия : С потерями
Общее
Полное имя : L:\Monar.ru\Видео\Документальные фильмы\Познавательные фильмы\Как выбрать вторую половину. О христианском браке\VIDEO_TS\VIDEO_TS.IFO
Формат : DVD Video
Профиль формата : Menu
Размер файла : 12,0 Кбайт
Режим общего битрейта : Переменный
Видео
Идентификатор : 224 (0xE0)
Формат : MPEG Video
Версия формата : Version 2
Вид битрейта : Переменный
Ширина : 720 пикселей
Высота : 576 пикселей
Соотношение сторон : 4:3
Частота кадров : 25,000 кадров/сек
Стандарт вещания : PAL
Метод сжатия : С потерями
Общее
Полное имя : L:\Monar.ru\Видео\Документальные фильмы\Познавательные фильмы\Как выбрать вторую половину. О христианском браке\VIDEO_TS\VIDEO_TS.VOB
Формат : MPEG-PS
Размер файла : 58,0 Кбайт
Продолжительность : 40 мс.
Режим общего битрейта : Переменный
Общий поток : 11,9 Мбит/сек
Видео
Идентификатор : 224 (0xE0)
Формат : MPEG Video
Версия формата : Version 2
Профиль формата : Main@Main
Параметр BVOP формата : Нет
Параметр матрицы формата : По умолчанию
Продолжительность : 40 мс.
Вид битрейта : Переменный
Ширина : 720 пикселей
Высота : 576 пикселей
Соотношение сторон : 4:3
Частота кадров : 25,000 кадров/сек
Стандарт вещания : PAL
Цветовое пространство : YUV
Субдискретизация насыщенности : 4:2:0
Битовая глубина : 8 бит
Тип развёртки : Прогрессивная
Метод сжатия : С потерями
Временной код первого кадра : 00:00:00:00
Оригинал временного кода : Group of pictures header
Меню
Общее
Полное имя : L:\Monar.ru\Видео\Документальные фильмы\Познавательные фильмы\Как выбрать вторую половину. О христианском браке\VIDEO_TS\VTS_01_0.BUP
Формат : DVD Video
Профиль формата : Program
Размер файла : 88,0 Кбайт
Продолжительность : 2 ч. 16 м.
Режим общего битрейта : Переменный
Общий поток : 88 бит/сек
Видео
Идентификатор : 224 (0xE0)
Формат : MPEG Video
Версия формата : Version 2
Продолжительность : 2 ч. 16 м.
Вид битрейта : Переменный
Ширина : 720 пикселей
Высота : 576 пикселей
Соотношение сторон : 4:3
Частота кадров : 25,000 кадров/сек
Стандарт вещания : PAL
Метод сжатия : С потерями
Аудио
Идентификатор : 128 (0x80)
Формат : AC-3
Формат/Информация : Audio Coding 3
Продолжительность : 2 ч. 16 м.
Каналы : 2 канала
Частота : 48,0 КГц
Метод сжатия : С потерями
Язык : English
Меню
Продолжительность : 2 ч. 16 м.
00:00:00.000 : Chapter 1
00:10:00.080 : Chapter 2
00:20:00.160 : Chapter 3
00:30:00.240 : Chapter 4
00:40:00.320 : Chapter 5
00:50:00.400 : Chapter 6
01:00:00.480 : Chapter 7
01:10:00.040 : Chapter 8
01:20:00.120 : Chapter 9
01:30:00.200 : Chapter 10
01:40:00.280 : Chapter 11
01:50:00.360 : Chapter 12
02:00:00.440 : Chapter 13
02:10:00.000 : Chapter 14
List (Audio) : 0
Общее
Полное имя : L:\Monar.ru\Видео\Документальные фильмы\Познавательные фильмы\Как выбрать вторую половину. О христианском браке\VIDEO_TS\VTS_01_0.IFO
Формат : DVD Video
Профиль формата : Program
Размер файла : 88,0 Кбайт
Продолжительность : 2 ч. 16 м.
Режим общего битрейта : Переменный
Общий поток : 88 бит/сек
Видео
Идентификатор : 224 (0xE0)
Формат : MPEG Video
Версия формата : Version 2
Продолжительность : 2 ч. 16 м.
Вид битрейта : Переменный
Ширина : 720 пикселей
Высота : 576 пикселей
Соотношение сторон : 4:3
Частота кадров : 25,000 кадров/сек
Стандарт вещания : PAL
Метод сжатия : С потерями
Аудио
Идентификатор : 128 (0x80)
Формат : AC-3
Формат/Информация : Audio Coding 3
Продолжительность : 2 ч. 16 м.
Каналы : 2 канала
Частота : 48,0 КГц
Метод сжатия : С потерями
Язык : English
Меню
Продолжительность : 2 ч. 16 м.
00:00:00.000 : Chapter 1
00:10:00.080 : Chapter 2
00:20:00.160 : Chapter 3
00:30:00.240 : Chapter 4
00:40:00.320 : Chapter 5
00:50:00.400 : Chapter 6
01:00:00.480 : Chapter 7
01:10:00.040 : Chapter 8
01:20:00.120 : Chapter 9
01:30:00.200 : Chapter 10
01:40:00.280 : Chapter 11
01:50:00.360 : Chapter 12
02:00:00.440 : Chapter 13
02:10:00.000 : Chapter 14
List (Audio) : 0
Общее
Полное имя : L:\Monar.ru\Видео\Документальные фильмы\Познавательные фильмы\Как выбрать вторую половину. О христианском браке\VIDEO_TS\VTS_01_0.VOB
Формат : MPEG-PS
Размер файла : 58,0 Кбайт
Продолжительность : 40 мс.
Режим общего битрейта : Переменный
Общий поток : 11,9 Мбит/сек
Видео
Идентификатор : 224 (0xE0)
Формат : MPEG Video
Версия формата : Version 2
Профиль формата : Main@Main
Параметр BVOP формата : Нет
Параметр матрицы формата : По умолчанию
Продолжительность : 40 мс.
Вид битрейта : Переменный
Ширина : 720 пикселей
Высота : 576 пикселей
Соотношение сторон : 4:3
Частота кадров : 25,000 кадров/сек
Стандарт вещания : PAL
Цветовое пространство : YUV
Субдискретизация насыщенности : 4:2:0
Битовая глубина : 8 бит
Тип развёртки : Прогрессивная
Метод сжатия : С потерями
Временной код первого кадра : 00:00:00:00
Оригинал временного кода : Group of pictures header
Меню
Общее
Полное имя : L:\Monar.ru\Видео\Документальные фильмы\Познавательные фильмы\Как выбрать вторую половину. О христианском браке\VIDEO_TS\VTS_01_1.VOB
Формат : MPEG-PS
Размер файла : 1024 Мбайт
Продолжительность : 48 м.
Режим общего битрейта : Переменный
Общий поток : 2947 Кбит/сек
Видео
Идентификатор : 224 (0xE0)
Формат : MPEG Video
Версия формата : Version 2
Профиль формата : Main@Main
Параметр BVOP формата : Да
Параметр матрицы формата : По умолчанию
Параметр GOP формата : M=3, N=13
Продолжительность : 48 м.
Вид битрейта : Переменный
Битрейт : 2697 Кбит/сек
Максимальный битрейт : 9008 Кбит/сек
Ширина : 720 пикселей
Высота : 576 пикселей
Соотношение сторон : 4:3
Частота кадров : 25,000 кадров/сек
Стандарт вещания : PAL
Цветовое пространство : YUV
Субдискретизация насыщенности : 4:2:0
Битовая глубина : 8 бит
Тип развёртки : Прогрессивная
Метод сжатия : С потерями
Бит/(Пиксели*Кадры) : 0.260
Временной код первого кадра : 00:00:00:00
Оригинал временного кода : Group of pictures header
Размер потока : 937 Мбайт (91%)
Аудио
Идентификатор : 189 (0xBD)-128 (0x80)
Формат : AC-3
Формат/Информация : Audio Coding 3
Расширение режима : CM (complete main)
Параметр Endianness формата : Big
Режим смешивания : DVD-Video
Продолжительность : 48 м.
Вид битрейта : Постоянный
Битрейт : 192 Кбит/сек
Каналы : 2 канала
Расположение каналов : Front: L R
Частота : 48,0 КГц
Битовая глубина : 16 бит
Метод сжатия : С потерями
Размер потока : 66,7 Мбайт (7%)
Меню
Общее
Полное имя : L:\Monar.ru\Видео\Документальные фильмы\Познавательные фильмы\Как выбрать вторую половину. О христианском браке\VIDEO_TS\VTS_01_2.VOB
Формат : MPEG-PS
Размер файла : 1024 Мбайт
Продолжительность : 41 м.
Режим общего битрейта : Переменный
Общий поток : 3425 Кбит/сек
Видео
Идентификатор : 224 (0xE0)
Формат : MPEG Video
Версия формата : Version 2
Профиль формата : Main@Main
Параметр BVOP формата : Да
Параметр матрицы формата : По умолчанию
Параметр GOP формата : M=3, N=13
Продолжительность : 41 м.
Вид битрейта : Переменный
Битрейт : 3165 Кбит/сек
Максимальный битрейт : 9008 Кбит/сек
Ширина : 720 пикселей
Высота : 576 пикселей
Соотношение сторон : 4:3
Частота кадров : 25,000 кадров/сек
Стандарт вещания : PAL
Цветовое пространство : YUV
Субдискретизация насыщенности : 4:2:0
Битовая глубина : 8 бит
Тип развёртки : Прогрессивная
Метод сжатия : С потерями
Бит/(Пиксели*Кадры) : 0.305
Временной код первого кадра : 00:48:34:15
Оригинал временного кода : Group of pictures header
Размер потока : 946 Мбайт (92%)
Аудио
Идентификатор : 189 (0xBD)-128 (0x80)
Формат : AC-3
Формат/Информация : Audio Coding 3
Расширение режима : CM (complete main)
Параметр Endianness формата : Big
Режим смешивания : DVD-Video
Продолжительность : 41 м.
Вид битрейта : Постоянный
Битрейт : 192 Кбит/сек
Каналы : 2 канала
Расположение каналов : Front: L R
Частота : 48,0 КГц
Битовая глубина : 16 бит
Метод сжатия : С потерями
Задержка видео : -392 мс.
Размер потока : 57,4 Мбайт (6%)
Меню
Общее
Полное имя : L:\Monar.ru\Видео\Документальные фильмы\Познавательные фильмы\Как выбрать вторую половину. О христианском браке\VIDEO_TS\VTS_01_3.VOB
Формат : MPEG-PS
Размер файла : 1024 Мбайт
Продолжительность : 36 м.
Режим общего битрейта : Переменный
Общий поток : 3915 Кбит/сек
Видео
Идентификатор : 224 (0xE0)
Формат : MPEG Video
Версия формата : Version 2
Профиль формата : Main@Main
Параметр BVOP формата : Да
Параметр матрицы формата : По умолчанию
Параметр GOP формата : M=3, N=13
Продолжительность : 36 м.
Вид битрейта : Переменный
Битрейт : 3645 Кбит/сек
Максимальный битрейт : 9008 Кбит/сек
Ширина : 720 пикселей
Высота : 576 пикселей
Соотношение сторон : 4:3
Частота кадров : 25,000 кадров/сек
Стандарт вещания : PAL
Цветовое пространство : YUV
Субдискретизация насыщенности : 4:2:0
Битовая глубина : 8 бит
Тип развёртки : Прогрессивная
Метод сжатия : С потерями
Бит/(Пиксели*Кадры) : 0.352
Временной код первого кадра : 01:30:22:14
Оригинал временного кода : Group of pictures header
Размер потока : 953 Мбайт (93%)
Аудио
Идентификатор : 189 (0xBD)-128 (0x80)
Формат : AC-3
Формат/Информация : Audio Coding 3
Расширение режима : CM (complete main)
Параметр Endianness формата : Big
Режим смешивания : DVD-Video
Продолжительность : 36 м.
Вид битрейта : Постоянный
Битрейт : 192 Кбит/сек
Каналы : 2 канала
Расположение каналов : Front: L R
Частота : 48,0 КГц
Битовая глубина : 16 бит
Метод сжатия : С потерями
Задержка видео : -544 мс.
Размер потока : 50,2 Мбайт (5%)
Меню
Общее
Полное имя : L:\Monar.ru\Видео\Документальные фильмы\Познавательные фильмы\Как выбрать вторую половину. О христианском браке\VIDEO_TS\VTS_01_4.VOB
Формат : MPEG-PS
Размер файла : 253 Мбайт
Продолжительность : 9 м. 4 с.
Режим общего битрейта : Переменный
Общий поток : 3894 Кбит/сек
Видео
Идентификатор : 224 (0xE0)
Формат : MPEG Video
Версия формата : Version 2
Профиль формата : Main@Main
Параметр BVOP формата : Да
Параметр матрицы формата : По умолчанию
Параметр GOP формата : M=3, N=13
Продолжительность : 9 м. 4 с.
Вид битрейта : Переменный
Битрейт : 3625 Кбит/сек
Максимальный битрейт : 9008 Кбит/сек
Ширина : 720 пикселей
Высота : 576 пикселей
Соотношение сторон : 4:3
Частота кадров : 25,000 кадров/сек
Стандарт вещания : PAL
Цветовое пространство : YUV
Субдискретизация насыщенности : 4:2:0
Битовая глубина : 8 бит
Тип развёртки : Прогрессивная
Метод сжатия : С потерями
Бит/(Пиксели*Кадры) : 0.350
Временной код первого кадра : 02:06:56:11
Оригинал временного кода : Group of pictures header
Размер потока : 235 Мбайт (93%)
Аудио
Идентификатор : 189 (0xBD)-128 (0x80)
Формат : AC-3
Формат/Информация : Audio Coding 3
Расширение режима : CM (complete main)
Параметр Endianness формата : Big
Режим смешивания : DVD-Video
Продолжительность : 9 м. 4 с.
Вид битрейта : Постоянный
Битрейт : 192 Кбит/сек
Каналы : 2 канала
Расположение каналов : Front: L R
Частота : 48,0 КГц
Битовая глубина : 16 бит
Метод сжатия : С потерями
Задержка видео : -216 мс.
Размер потока : 12,5 Мбайт (5%)
Меню
Скриншоты
Анаморфированные скриншоты
Обложка и диск