Беседа с иноком Всеволодом (Филипьевым) (Сергей Серюбин)

Беседа с иноком Всеволодом (Филипьевым) (Сергей Серюбин)
Название:
Беседа с иноком Всеволодом (Филипьевым) (Сергей Серюбин)
Размер:
1.29 GB
19
Скачать
Беседа с иноком Всеволодом (Филипьевым)
Год выпуска: 2010
Страна: Россия
Жанр: Православные беседы
Продолжительность: 02:41:48
Перевод: Не требуется
Русские субтитры: нет
Режиссер: С. Серюбин
Описание: Видеобеседа известного режиссера-патриота с иноком Джорданвилля отцом Всеволодом , вернувшимся в Россию, по самым актуальным вопросам современности.
Доп. информация: Рип сделан с этого исходника: http://rutracker.org/forum/viewtopic.php?t=4421170
Сэмпл: http://multi-up.com/858474
Качество: DVDRip
Формат: AVI
Видеокодек: XviD
Аудиокодек: MP3
Видео: 998 Кбит/сек, 640*480 (4:3), в 25,000 кадров/сек, MPEG-4 Visual (XviD) (Advanced Simple@L5) (BVOP2)
Аудио: Русский, 128 Кбит/сек, 48,0 КГц, 2 канала, MPEG Audio (MP3) (Version 1) (Layer 3)
MediaInfo
Формат : AVI
Формат/Информация : Audio Video Interleave
Размер файла : 1,29 Гбайт
Продолжительность : 2 ч. 41 м.
Общий поток : 1139 Кбит/сек
Видео
Идентификатор : 0
Формат : MPEG-4 Visual
Профиль формата : Advanced Simple@L5
Параметр BVOP формата : 2
Параметр QPel формата : Нет
Параметр GMC формата : Без точки перехода
Параметр матрицы формата : Default (H.263)
Идентификатор кодека : XVID
Идентификатор кодека/Подсказка : XviD
Продолжительность : 2 ч. 41 м.
Битрейт : 998 Кбит/сек
Ширина : 640 пикселей
Высота : 480 пикселей
Соотношение сторон : 4:3
Частота кадров : 25,000 кадров/сек
Цветовое пространство : YUV
Субдискретизация насыщенности : 4:2:0
Битовая глубина : 8 бит
Тип развёртки : Прогрессивная
Метод сжатия : С потерями
Бит/(Пиксели*Кадры) : 0.130
Размер потока : 1,13 Гбайт (88%)
Библиотека кодирования : XviD 1.2.1 (UTC 2008-12-04)
Аудио
Идентификатор : 1
Формат : MPEG Audio
Версия формата : Version 1
Профиль формата : Layer 3
Идентификатор кодека : 55
Идентификатор кодека/Подсказка : MP3
Продолжительность : 2 ч. 41 м.
Продолжительность оригинала : 2 ч. 41 м.
Вид битрейта : Постоянный
Битрейт : 128 Кбит/сек
Каналы : 2 канала
Частота : 48,0 КГц
Метод сжатия : С потерями
Размер потока : 148 Мбайт (11%)
Выравнивание : Разделение по промежуткам
Продолжительность промежутка : 24 мс. (0,60 видеокадр)
Скриншоты