Двести храмов здесь и сейчас!

Двести храмов здесь и сейчас!
Название:
Двести храмов здесь и сейчас!
Размер:
67.6 MB
23
Скачать
Двести храмов здесь и сейчас!
Год выпуска: 2013
Страна: Россия
Жанр: торжество Православия
Продолжительность: 00:06:45
Перевод: Не требуется
Русские субтитры: нет
Описание: Специальный репортаж День-ТВ с пикета в поддержку патриарха Кирилла и Архиерейского собора и с пожеланиями увеличения количества православных храмов. Комментарии участников и организаторов мероприятия, Дмитрия Энтео, Андрея Коваленко (ЕСМ), Александра Бовдунова (ЕСМ). Ивана Отраковского («Святая Русь»).
качество: WEBRip
формат: AVI
Видео: xvid, 720x400 (16:9), 25.000 fps, 1 198 Kbps (0.166 bit/pixel)
Аудио: MP3, 48.0 KHz, 2 ch, 192 Kbps, CBR
MediaInfo
Общее
Полное имя : I:\AVI\Двести храмов здесь и сейчас!.avi
Формат : AVI
Формат/Информация : Audio Video Interleave
Размер файла : 67,6 Мбайт
Продолжительность : 6 м. 44 с.
Общий поток : 1404 Кбит/сек
Программа кодирования : Lavf54.6.100
Видео
Идентификатор : 0
Формат : xvid
Идентификатор кодека : xvid
Продолжительность : 6 м. 44 с.
Битрейт : 1198 Кбит/сек
Ширина : 720 пикселей
Высота : 400 пикселей
Соотношение сторон : 16:9
Частота кадров : 25,000 кадров/сек
Бит/(Пиксели*Кадры) : 0.166
Размер потока : 57,7 Мбайт (85%)
Аудио
Идентификатор : 1
Формат : MPEG Audio
Версия формата : Version 1
Профиль формата : Layer 3
Режим : Joint stereo
Идентификатор кодека : 55
Идентификатор кодека/Подсказка : MP3
Продолжительность : 6 м. 44 с.
Вид битрейта : Постоянный
Битрейт : 192 Кбит/сек
Каналы : 2 канала
Частота : 48,0 КГц
Метод сжатия : С потерями
Размер потока : 9,25 Мбайт (14%)
Выравнивание : Соединение по промежуткам
Продолжительность промежутка : 24 мс. (0,60 видеокадр)
Время предзагрузки промежутка : 24 мс.
Библиотека кодирования : LAME3.98.4
Скриншоты